<?xml version="1.0" standalone="no"?>
<!DOCTYPE svg PUBLIC "-//W3C//DTD SVG 1.1//EN" "http://www.w3.org/Graphics/SVG/1.1/DTD/svg11.dtd" >
<!--
2013-9-30: Created.
-->
<svg>
<metadata>
Created by iconfont
</metadata>
<defs>

<font id="iconfont" horiz-adv-x="1024" >
  <font-face
    font-family="iconfont"
    font-weight="500"
    font-stretch="normal"
    units-per-em="1024"
    ascent="896"
    descent="-128"
  />
    <missing-glyph />
    
    <glyph glyph-name="check" unicode="&#58900;" d="M512.283136-127.99897599999997a102.399693 102.399693 0 0 0-72.703782 29.695911l-409.598771 409.598771a102.399693 102.399693 0 0 0 145.407564 145.407564l325.631023-326.65502L1044.761539 855.038075a102.399693 102.399693 0 1 0 163.839508-122.879631l-614.398157-819.197543a102.399693 102.399693 0 0 0-74.751775-40.959877z"  horiz-adv-x="1229" />

    
    <glyph glyph-name="hangyexingzhuang" unicode="&#58943;" d="M970.829424 549.341836C867.403325 761.674334 360.300615 1006.072421 92.348895 776.949214 66.579822 754.91141 44.891824 732.757003 26.935095 709.902983v-528.324299c1.166021-3.498064 2.215441-6.879526 3.381462-10.377591 70.194489-211.166477 231.688454-359.4844 548.962878-214.431337 403.093601 184.231382 469.440219 432.593942 391.549989 592.57208z"  horiz-adv-x="1026" />

    
    <glyph glyph-name="arrow-left" unicode="&#58933;" d="M450.048 662.528L186.368 398.848c-20.48-20.48-20.48-53.76 0-74.752l263.68-263.68c20.48-20.48 53.76-20.48 74.752 0 20.48 20.48 20.48 53.76 0 74.752l-173.568 173.568h505.344c29.184 0 52.736 23.552 52.736 52.736 0 29.184-23.552 52.736-52.736 52.736H350.72l173.568 173.568c10.24 10.24 15.36 23.552 15.36 37.376s-5.12 27.136-15.36 37.376c-20.48 20.48-53.76 20.48-74.24 0z"  horiz-adv-x="1024" />

    
    <glyph glyph-name="semi-circle" unicode="&#58934;" d="M752.941176-40.65882399999998c-162.635294 0-313.223529 63.247059-427.670588 177.694118C210.823529 251.482353 147.576471 402.070588 147.576471 564.705882c0 84.329412 66.258824 150.588235 150.588235 150.588236s150.588235-66.258824 150.588235-150.588236c0-81.317647 30.117647-156.611765 87.341177-213.835294 57.223529-57.223529 132.517647-90.352941 213.835294-90.352941 81.317647 0 156.611765 30.117647 213.835294 87.341177 57.223529 57.223529 90.352941 132.517647 90.352941 213.835294 0 84.329412 66.258824 150.588235 150.588235 150.588235s150.588235-66.258824 150.588236-150.588235c0-162.635294-63.247059-313.223529-177.694118-427.670589-111.435294-111.435294-262.023529-174.682353-424.658824-174.682353"  horiz-adv-x="1505" />

    
    <glyph glyph-name="cart" unicode="&#58936;" d="M686.08 215.03999999999996H449.28l-153.6 413.44h-115.2v51.2h149.76L390.4 518.4h390.4c23.04 0 43.52-10.24 55.04-26.88 11.52-16.64 15.36-39.68 7.68-61.44v-1.28l-57.6-143.36c-15.36-39.68-58.88-70.4-99.84-70.4z m-202.24 51.2H684.8c20.48 0 44.8 17.92 51.2 35.84v1.28l57.6 143.36c1.28 6.4 1.28 11.52 0 14.08-2.56 3.84-7.68 5.12-14.08 5.12h-371.2l75.52-199.68zM488.96 44.799999999999955c-44.8 0-80.64 35.84-80.64 80.64s35.84 80.64 80.64 80.64 80.64-35.84 80.64-80.64-35.84-80.64-80.64-80.64z m0 108.8c-16.64 0-29.44-12.8-29.44-29.44 0-16.64 12.8-29.44 29.44-29.44 16.64 0 29.44 12.8 29.44 29.44 0 16.64-12.8 29.44-29.44 29.44zM701.44 44.799999999999955c-44.8 0-80.64 35.84-80.64 80.64s35.84 80.64 80.64 80.64 80.64-35.84 80.64-80.64c-1.28-44.8-37.12-80.64-80.64-80.64z m0 108.8C684.8 153.60000000000002 672 140.79999999999995 672 125.44000000000005c0-16.64 12.8-29.44 29.44-29.44 16.64 0 29.44 12.8 29.44 29.44-1.28 15.36-14.08 28.16-29.44 28.16z"  horiz-adv-x="1024" />

    
    <glyph glyph-name="arrow-up" unicode="&#58939;" d="M83.960153-128c-27.855939 0-55.31954 14.124138-71.405364 39.626054-24.324904 39.233716-12.162452 91.022222 27.071265 115.347126l878.835249 544.171648c32.956322 20.401533 75.721073 15.693487 103.184674-12.162453l275.813027-275.813026L1782.387739 768.098084c32.563985 32.563985 85.529502 32.563985 118.485824 0 32.563985-32.563985 32.563985-85.529502 0-118.485823L1356.309579 105.83294999999998c-32.563985-32.563985-85.529502-32.563985-118.485824 0L950.240613 393.808429 127.901916-115.44521099999997c-13.731801-8.631418-29.03295-12.554789-43.941763-12.554789zM1925.198467 374.19157099999995c-21.578544 0-43.157088 8.631418-59.242911 24.717241l-334.663602 334.663602c-23.932567 23.932567-30.994636 60.027586-18.04751 91.414559s43.549425 51.788506 77.290422 51.788506h334.663601c46.295785 0 83.567816-37.664368 83.567817-83.567816v-334.663602c0-33.740996-20.401533-64.343295-51.788506-77.290421-10.200766-5.100383-21.186207-7.062069-31.779311-7.062069z"  horiz-adv-x="2008" />

    
    <glyph glyph-name="like" unicode="&#58940;" d="M587.776 796.16l43.008-0.512c41.984-0.512 75.264-34.304 75.264-76.288 0-5.12-0.512-9.728-1.536-14.848L660.48 488.96c-2.56-12.288 5.632-24.576 17.92-27.136 1.536-0.512 3.072-0.512 4.608-0.512h171.008c44.544 0 80.384-35.84 80.384-80.384 0-5.632-0.512-10.752-1.536-16.384L860.16 14.847999999999956c-7.68-37.376-40.448-64-78.336-64.512l-388.096-1.536c-44.544 0-80.384 35.84-80.896 80.384V391.68c0 45.568 13.824 90.624 39.424 128.512l158.72 235.52c16.896 25.088 46.08 40.448 76.8 40.448zM177.152 460.8c58.368 0 105.984-47.616 105.984-105.984v-299.008c0-58.368-47.616-105.984-105.984-105.984s-105.984 47.616-105.984 105.984v299.008c0 58.88 47.104 105.984 105.984 105.984z"  horiz-adv-x="1024" />

    
    <glyph glyph-name="bag" unicode="&#58941;" d="M896 576h-128v-512h128c17.408 0 31.744 14.336 31.744 32.256V544.256c0 17.408-13.824 31.744-31.744 31.744m-192 0v32.256c1.024 51.712-39.936 94.72-92.16 96.256H416.256c-51.712 1.024-94.72-39.936-96.256-92.16v-36.352H256v-512h479.744v512h-31.744z m-64 0H384v32.256c-0.512 17.408 13.312 31.744 30.72 32.256h193.536c17.408 0.512 31.744-13.312 31.744-30.72v-33.792z m-415.744 0H128c-17.92 0-31.744-14.336-32.256-32.256v-448c0-17.408 14.336-31.744 32.256-32.256h95.744V576h0.512z"  horiz-adv-x="1024" />

    
    <glyph glyph-name="heart" unicode="&#58942;" d="M93.727539 326.65599999999995c-40.96 40.96-70.144 89.088-83.968 141.824-13.824 49.664-12.8 103.424 5.12 158.208C30.751539 674.304 58.911539 717.8240000000001 94.239539 752.64c35.328 34.304 79.36 61.952 127.488 76.8C277.023539 847.36 332.831539 847.36 384.031539 834.048c46.592-12.288 90.112-35.328 128.512-67.072 38.4 31.744 81.408 54.784 128 67.072 51.712 13.312 107.52 12.8 162.816-4.608 48.128-15.872 92.16-42.496 128-77.312 34.816-34.816 62.464-78.336 78.336-125.44h0.512c17.92-54.272 18.432-108.032 5.12-158.208-13.824-52.736-43.52-100.864-83.456-141.824l-2.56-1.536-389.12-388.608c-15.36-15.872-39.424-15.872-55.296 0.512l-391.168 389.632zM310.303539 796.672c20.48 0 41.472-2.56 61.44-8.192 39.424-10.24 76.288-30.208 110.592-58.368l29.696-24.576 29.696 24.576c34.304 28.16 71.68 48.128 109.568 58.368 20.48 5.12 40.96 7.68 61.44 7.68 25.088 0 50.688-4.096 75.264-11.776 40.448-13.312 78.848-36.352 110.08-66.048 30.208-30.208 53.248-67.072 66.56-107.008l2.56-8.192c12.288-41.472 12.8-82.944 1.536-123.392-10.752-41.472-34.816-82.432-68.608-117.76l-2.048-1.536-3.072-3.072-382.976-382.464-385.536 385.024c-35.84 35.84-60.928 77.312-72.192 120.832-11.776 42.496-10.24 87.04 4.096 131.072 13.312 39.936 36.864 76.8 68.096 107.52 31.744 30.72 69.12 53.248 109.568 66.048 24.064 7.68 49.152 11.264 74.24 11.264m0 46.592c-29.184 0-58.88-4.608-88.576-13.824-48.128-15.36-92.16-42.496-127.488-76.8-35.84-34.816-63.488-78.848-79.872-125.952-17.92-54.272-18.432-108.032-5.12-158.208 13.824-52.736 43.52-100.864 83.968-141.824l390.656-389.632c7.68-8.192 17.92-12.288 28.16-12.288 9.728 0 19.456 4.096 27.136 11.776l389.12 388.608 2.56 1.536c39.936 40.96 69.632 89.088 83.456 141.824 13.824 49.664 12.8 103.424-5.12 158.208h-0.512c-15.872 47.616-43.008 90.624-78.336 125.44-36.352 34.816-79.872 61.952-128.512 77.312-30.208 9.216-60.416 13.824-89.6 13.824-25.088 0-49.664-3.072-73.216-9.216-46.592-12.288-89.088-35.328-128-67.072-37.376 31.232-80.384 54.784-126.976 67.072-24.064 6.144-48.64 9.216-73.728 9.216z"  horiz-adv-x="1024" />

    
    <glyph glyph-name="ball" unicode="&#58938;" d="M808.229 681.951c-79.292 79.335-184.748 122.988-296.916 122.988-112.186 0-217.641-43.651-296.935-122.988-79.315-79.315-123.009-184.748-123.009-296.916 0-112.187 43.695-217.642 123.009-296.957 79.294-79.315 184.748-123.009 296.935-123.009 112.168 0 217.624 43.695 296.916 123.009 79.335 79.314 123.009 184.77 123.009 296.957 0 112.167-43.674 217.6-123.009 296.916zM876.465 385.035c0 2.387-0.297 4.73-0.339 7.116-89.35-1.939-173.457-34.512-240.523-92.715l-86.621 86.621 237.966 237.945c57.713-66.382 89.519-150.149 89.519-238.966zM635.646 221.95399999999995l113.551-113.552c-54.049-46.635-119.58-75.863-189.949-85.067 2.557 70.963 27.909 141.244 76.398 198.618zM510.27 424.789l-84.598 84.578c59.758 68.982 90.287 154.476 92.268 240.48 85.366-1.512 165.831-32.148 230.169-87.219l-237.838-237.839zM483.598 748.823c-6.774-0.595-13.507-1.257-20.217-2.152 6.711 0.895 13.421 1.641 20.217 2.152zM463.36 746.672c-2.557-70.942-27.908-141.202-76.396-198.575l-113.552 113.551c-6.903-5.944-13.805-11.909-20.303-18.428 57.501 57.52 130.913 93.099 210.251 103.452zM234.682 622.9159999999999l113.572-113.572c-55.817-47.295-125.077-73.988-198.64-76.546 9.161 70.411 38.391 136.006 85.069 190.118zM146.142 385.035c0-2.407 0.298-4.75 0.34-7.136 89.35 1.939 173.457 34.512 240.502 92.715l84.556-84.556-237.859-237.837c6.242-7.308 12.548-14.55 19.429-21.412-68.983 68.962-106.968 160.675-106.968 258.226zM149.614 432.778c-0.873-6.646-1.534-13.357-2.13-20.068 0.511 6.731 1.257 13.421 2.13 20.068zM272.305 109.38400000000001l237.966 237.945 86.646-86.644c-59.759-69.004-90.289-154.496-92.248-240.502 2.216-0.041 4.411-0.339 6.646-0.339-88.838-0.001-172.627 31.828-239.009 89.541zM559.248 23.336000000000013c-6.732-0.874-13.462-1.619-20.26-2.132 6.775 0.576 13.529 1.257 20.26 2.132zM787.926 147.11199999999997l-113.592 113.594c55.818 47.294 125.096 73.987 198.659 76.545-9.161-70.432-38.391-136.027-85.068-190.138zM875.125 357.34000000000003c-0.511-6.732-1.258-13.401-2.109-20.047 0.852 6.646 1.513 13.336 2.109 20.047z"  horiz-adv-x="1024" />

    
    <glyph glyph-name="beauty" unicode="&#58909;" d="M542.958082 321.355241c-0.121773-0.183172-12.353352-17.853623-30.756491-17.853623-17.822924 0-29.057803 16.236799-29.871331 17.457604-9.191336 14.417361-28.254507 18.778692-42.824341 9.750061-14.650675-9.109472-19.155269-28.367071-10.055007-43.017746 10.767228-17.324574 40.302915-46.657646 82.751702-46.657646 42.224684 0 72.126714 29.098735 83.137489 46.291302 9.211802 14.386662 5.03262 33.317827-9.222035 42.723034C571.842946 339.48413400000004 552.545438 335.46765700000003 542.958082 321.355241zM852.338339 128.818133c-0.618077 0.461511-1.300622 0.75827-1.940189 1.167592l-74.792427 74.801636c-12.20088 12.20088-31.966039 12.20088-44.166919 0-12.20088-12.190647-12.20088-31.966039 0-44.166919l59.282175-59.289338c-62.056358-67.240427-157.496034-102.70515-278.264585-102.70515-121.145128 0-216.804814 35.68371-278.844799 103.325273l58.663074 58.670238c12.20088 12.20088 12.20088 31.976272 0 44.166919-12.20088 12.20088-31.986505 12.20088-44.166919 0l-78.877465-78.887698c-0.213871-0.213871-0.356111-0.469698-0.562818-0.688685-0.802272-0.847298-1.493004-1.75497-2.183735-2.672876-0.565888-0.74906-1.149173-1.479701-1.639337-2.2656-0.567935-0.914836-1.023306-1.870604-1.489934-2.830465-0.428765-0.880043-0.87595-1.744737-1.217734-2.654456-0.355087-0.948605-0.596588-1.917676-0.857531-2.892887-0.258896-0.964978-0.537236-1.917676-0.701988-2.90005-0.166799-0.99363-0.215918-1.991354-0.287549-2.997264-0.068562-0.983397-0.161682-1.955538-0.137123-2.939959 0.023536-1.020236 0.167822-2.026146 0.291642-3.043313 0.119727-0.976234 0.215918-1.944282 0.427742-2.908236 0.214894-0.978281 0.544399-1.926886 0.856507-2.889817 0.318248-0.983397 0.620124-1.958608 1.037632-2.912329 0.390903-0.890276 0.889253-1.737574 1.369184-2.600221 0.532119-0.957815 1.057075-1.907443 1.698688-2.816139 0.184195-0.261966 0.295735-0.552585 0.48914-0.810459 73.04155-97.422843 192.730513-148.919704 346.134345-148.919704s273.092795 51.496861 346.134345 148.929938C868.941482 98.89563699999997 866.134553 118.46739100000002 852.338339 128.818133zM855.451236 635.839749c-9.140171 14.620999-28.40698 19.073404-43.038212 9.912767-14.630209-9.150404-19.063171-28.417213-9.912767-43.038212 45.945425-73.438593 70.235644-162.951279 70.235644-258.858606 0-39.733956-4.270257-76.905554-12.709463-110.47716-4.198625-16.724917 5.957689-33.694403 22.692838-37.903262 2.552126-0.64059 5.114484-0.945535 7.625678-0.945535 13.980409 0 26.709315 9.465582 30.278607 23.639396 9.66922 38.543851 14.580067 80.829933 14.580067 125.687584C935.203628 451.496254 907.629619 552.4679229999999 855.451236 635.839749zM309.257459 700.7982030000001c57.94369 44.655036 127.812991 68.26271 202.053855 68.26271 75.196633 0 145.808854-24.187889 204.209962-69.940932 5.724375-4.484128 12.505825-6.649444 19.246343-6.649444 9.272177 0 18.443048 4.107551 24.604374 11.966543 10.645454 13.583366 8.256034 33.216519-5.317099 43.851741C684.551938 802.745083 600.611154 831.52864 511.311315 831.52864c-88.160899 0-171.216523-28.102035-240.181221-81.256652-13.665231-10.532891-16.207124-30.145577-5.67321-43.800575C275.989775 692.8072050000001 295.622928 690.244846 309.257459 700.7982030000001zM164.921143 233.38877000000002c-8.439206 33.57263-12.709463 70.744227-12.709463 110.466927 0 96.853885 24.737404 187.067536 71.527057 260.881682 9.232269 14.569834 4.910846 33.867342-9.658987 43.10882-14.610766 9.242502-33.877575 4.900613-43.10882-9.658987-53.134151-83.839477-81.225953-185.623651-81.225953-294.332539 0-44.847417 4.910846-87.133499 14.580067-125.677351 3.568269-14.183024 16.287965-23.639396 30.278607-23.639396 2.511193 0 5.073552 0.304945 7.625678 0.945535C158.962431 199.69436700000006 169.119769 216.66283099999998 164.921143 233.38877000000002zM351.116823 581.505259c-74.627674 0-135.346571-51.375088-135.346571-114.524336S276.489148 352.45761000000005 351.116823 352.45761000000005 486.463394 403.832697 486.463394 466.981946 425.744497 581.505259 351.116823 581.505259zM351.116823 414.925337c-39.499619 0-72.878844 23.842011-72.878844 52.05661s33.379225 52.05661 72.878844 52.05661 72.878844-23.842011 72.878844-52.05661S390.616442 414.925337 351.116823 414.925337zM673.866574 581.505259c-74.627674 0-135.346571-51.375088-135.346571-114.524336S599.2389 352.45761000000005 673.866574 352.45761000000005s135.346571 51.375088 135.346571 114.524336S748.494249 581.505259 673.866574 581.505259zM673.866574 414.925337c-39.499619 0-72.878844 23.842011-72.878844 52.05661s33.379225 52.05661 72.878844 52.05661 72.878844-23.842011 72.878844-52.05661S713.367217 414.925337 673.866574 414.925337z"  horiz-adv-x="1024" />

    
    <glyph glyph-name="cook" unicode="&#59018;" d="M1002.666667 53.33333300000004v-64H21.333333v64h981.333334zM512 789.333333a117.333333 117.333333 0 0 0 98.090667-181.738666c192-43.968 335.786667-214.357333 339.2-418.88l0.042666-7.381334H1002.666667v-64H21.333333v64h53.333334c0 207.786667 144.938667 381.76 339.221333 426.282667A117.333333 117.333333 0 0 0 512 789.333333z m0-234.666666c-203.84 0-369.536-163.370667-373.269333-366.314667L138.666667 181.33333300000004h746.666666C885.333333 387.52 718.186667 554.666667 512 554.666667z m118.954667-87.722667a310.314667 310.314667 0 0 0 164.416-161.408l3.2-7.573333-59.264-24.149334a246.314667 246.314667 0 0 1-126.336 131.2l-6.634667 2.88 24.618667 59.050667zM512 725.333333a53.333333 53.333333 0 1 1 0-106.666666 53.333333 53.333333 0 0 1 0 106.666666z"  horiz-adv-x="1024" />

    
    <glyph glyph-name="repair" unicode="&#58964;" d="M836.906667 789.333333l-168.32 79.573334a49.92 49.92 0 0 1-34.133334 4.48 52.906667 52.906667 0 0 1-51.2-51.413334v-166.186666c0-11.093333-1.92-12.373333-6.613333-15.146667l-48.426667-32.64a21.333333 21.333333 0 0 0-11.733333-3.626667h-8.533333a21.333333 21.333333 0 0 0-11.946667 3.626667l-50.133333 33.493333c-3.2 1.92-5.333333 3.2-5.333334 14.293334V821.76c0 26.88-29.44 48.64-51.84 51.84a48.213333 48.213333 0 0 1-33.066666-4.48L195.84 796.373333 192 794.666667a90.666667 90.666667 0 0 1-42.666667-76.373334v-364.8A90.453333 90.453333 0 0 1 193.493333 277.33333300000004l106.666667-60.16c16.853333-10.24 23.466667-30.506667 23.466667-72.32v-139.52A121.813333 121.813333 0 0 1 434.133333-106.66666699999996h155.52a121.813333 121.813333 0 0 1 109.866667 111.786667v139.52a89.173333 89.173333 0 0 0 43.946667 72.96l94.933333 62.293333a75.946667 75.946667 0 0 1 36.266667 64V725.333333a75.946667 75.946667 0 0 1-37.76 64zM810.666667 344.746667a12.16 12.16 0 0 0-6.4-10.666667l-94.933334-62.293333a152.32 152.32 0 0 1-73.813333-128v-139.52a61.013333 61.013333 0 0 0-45.653333-46.933334h-155.733334a61.013333 61.013333 0 0 0-45.866666 47.786667v139.52c0 46.72-6.4 98.133333-55.253334 128l-106.666666 60.16a25.6 25.6 0 0 0-12.16 21.333333V717.866667a26.24 26.24 0 0 0 11.093333 21.333333L377.6 808.533333v-152.32a73.173333 73.173333 0 0 1 34.773333-68.48L460.16 554.666667a88.32 88.32 0 0 1 48.213333-14.72h9.813334a85.333333 85.333333 0 0 1 45.866666 14.72l47.36 32a74.453333 74.453333 0 0 1 36.053334 69.12V808.3199999999999l158.506666-74.026667A11.52 11.52 0 0 0 810.666667 725.333333zM586.666667 394.453333h-149.333334a32 32 0 0 1 0-64h149.333334a32 32 0 0 1 0 64z"  horiz-adv-x="1024" />

    
    <glyph glyph-name="hotel" unicode="&#58980;" d="M597.333 789.333c35.347 0 64-28.653 64-64v-152.64l209.785-127.25a96.001 96.001 0 0 0 46.085-77.067l0.13-5.014v-384.695H106.667V725.333c0 35.347 28.653 64 64 64h426.666z m64-291.498v-455.168h192V363.36199999999997a32.001 32.001 0 0 1-12.65 25.487l-2.755 1.873-176.595 107.113z m-64 227.498H170.667v-682.666h426.666V725.333zM490.667 362.66700000000003v-64H277.333v64h213.334z m0 213.333v-64H277.333v64h213.334z"  horiz-adv-x="1024" />

    
    <glyph glyph-name="telphone" unicode="&#58952;" d="M816.665373 174.79221099999995l-27.678386-27.6702c-11.304464-11.313673-25.353434-20.341281-41.8522-26.886347-18.136056-7.240915-38.509059-10.711969-60.280922-10.711969-83.593883-0.039909-215.690434 78.124312-303.229163 165.664064-110.35641 110.36255-176.479387 262.222213-141.53655 350.061794 5.107321 12.861936 12.198833 24.294312 20.633946 34.334993l-0.023536 0.047072 1.795902 2.902096c0.798179 1.311879 1.730411 2.49789 2.783393 3.549849l29.045523 29.021987c7.358595 7.423063 19.321044 7.423063 26.680663 0l13.075807-13.068643 113.927749-113.952308c7.360641-7.336082 7.360641-19.282159-0.023536-26.657126l-30.460756-30.500665-20.712741-20.720927c0 0-10.838859-69.476351 66.321498-146.627499 77.159334-77.120448 146.31846-66.61314 146.31846-66.61314l51.488675 51.505048c7.359618 7.375991 19.337417 7.375991 26.673499 0l127.029138-126.981043C824.017828 194.10506899999996 824.017828 182.16717900000003 816.665373 174.79221099999995z"  horiz-adv-x="1024" />

    
    <glyph glyph-name="medical" unicode="&#58935;" d="M755.870752 653.115204l-47.152926 0 0 34.556027c0 54.628178-44.720527 99.088786-99.670024 99.088786L414.186765 786.7600170000001c-54.948473 0-99.650581-44.722574-99.650581-99.691513l0-33.9533L267.383258 653.115204c-76.848249 0-139.350768-62.522985-139.350768-139.370211l0-395.248949c0-76.826759 62.502519-139.349745 139.350768-139.349745l488.487493 0c76.848249 0 139.351791 62.522985 139.351791 139.349745L895.222543 513.744993C895.222543 590.5932419999999 832.719001 653.115204 755.870752 653.115204zM373.14093 687.068504c0 22.662139 18.423605 41.066301 41.045835 41.066301l194.861036 0c23.023366 0 41.066301-17.759479 41.066301-40.463574l0-34.556027L373.14093 653.115204 373.14093 687.068504zM836.615751 118.49706700000002c0-44.519959-36.222993-80.742952-80.744999-80.742952L267.383258 37.754114999999956c-44.522006 0-80.744999 36.222993-80.744999 80.742952L186.638259 513.744993c0 44.520983 36.222993 80.744999 80.744999 80.744999l488.487493 0c44.522006 0 80.744999-36.224016 80.744999-80.744999L836.615751 118.49706700000002zM637.879454 381.949294l-60.433394 0 0 60.452837c0 17.720593-14.506389 32.225959-32.226982 32.225959l-67.183122 0c-17.71957 0-32.225959-14.504342-32.225959-32.225959l0-60.452837-60.432371 0c-17.740036 0-32.246425-14.505365-32.246425-32.245402l0-67.143213c0-17.740036 14.505365-32.246425 32.246425-32.246425l60.432371 0 0-60.45386c0-17.718547 14.506389-32.224935 32.225959-32.224935l67.183122 0c17.720593 0 32.226982 14.506389 32.226982 32.224935l0 60.45386 60.433394 0c17.740036 0 32.263821 14.506389 32.263821 32.246425l0 67.143213C670.143275 367.443929 655.618467 381.949294 637.879454 381.949294z"  horiz-adv-x="1024" />

    
    <glyph glyph-name="micphone" unicode="&#58937;" d="M903.966695 195.75259200000005L602.093413 570.0217170000001c0.403183 5.686513 0.868787 11.330046 0.868787 17.141402 0 135.12656-109.933785 245.060345-245.071601 245.060345-135.147026 0-245.081835-109.934808-245.081835-245.060345 0-135.136793 109.934808-245.070578 245.081835-245.070578 5.78168 0 11.455913 0.466628 17.132192 0.847298l374.235356-301.883515c5.028527-4.02978 11.085476-6.024204 17.119913-6.024204 7.011694 0 14.002922 2.671852 19.285229 7.976672l21.341051 21.340027c0.040932-8.228405-1.01819-16.927531-4.158716-25.454742-7.021927-18.96698-23.557532-34.07098-49.143257-44.804439-30.124088-12.68695-76.985372 9.289574-131.244136 34.70543-99.908454 46.840818-236.712213 110.995977-383.123794-3.734044-11.860119-9.29162-13.928221-26.476001-4.647857-38.311561 9.29162-11.837606 26.435069-13.916964 38.293141-4.626367 119.989815 94.065376 229.604328 42.642193 326.332347-2.714831 47.416939-22.234397 92.857874-43.532469 134.733611-43.532469 14.023388 0 27.665083 2.376117 40.828894 7.933693 40.030715 16.844643 66.655096 42.472324 79.118965 76.203566 13.035898 35.217083 6.576789 70.261227 0.044002 91.3925l47.985898 47.987944C911.876851 169.23565799999994 912.726196 184.93522199999995 903.966695 195.75259200000005zM167.350984 587.163119c0 105.054661 85.473697 190.517101 190.539614 190.517101 105.055684 0 190.529381-85.46244 190.529381-190.517101s-85.473697-190.548824-190.529381-190.548824C252.824681 396.614296 167.350984 482.108458 167.350984 587.163119zM764.427638 98.88847399999997L443.481975 357.79005800000004c66.295915 24.865317 118.916367 77.476559 143.749962 143.752008l258.902608-320.93543-38.642089-38.651298c-3.53143-2.249227-6.417153-5.133927-8.528234-8.529257L764.427638 98.88847399999997zM600.172667 380.10938999999996c-10.660804 10.649548-27.918863 10.649548-38.568411 0-10.648524-10.648524-10.648524-27.918863 0-38.568411l59.093886-59.104119c5.325285-5.303796 12.304234-7.977695 19.284205-7.977695 6.970762 0 13.948687 2.673899 19.273972 7.977695 10.660804 10.649548 10.660804 27.91784 0 38.567387L600.172667 380.10938999999996z"  horiz-adv-x="1024" />

    
    <glyph glyph-name="luggage" unicode="&#58962;" d="M704 720V752c0 52.8-43.2 96-96 96H416c-52.8 0-96-43.2-96-96v-32c-88 0-160-72-160-160v-416c0-88 72-160 160-160h32v-32c0-17.6 14.4-32 32-32s32 14.4 32 32v32h192v-32c0-17.6 14.4-32 32-32s32 14.4 32 32v32h32c88 0 160 72 160 160V560c0 88-72 160-160 160zM384 752c0 17.6 14.4 32 32 32h192c17.6 0 32-14.4 32-32v-32H384V752z m416-608c0-52.8-43.2-96-96-96H320c-52.8 0-96 43.2-96 96V560c0 52.8 43.2 96 96 96h384c52.8 0 96-43.2 96-96v-416zM400 560c-17.6 0-32-14.4-32-32v-352c0-17.6 14.4-32 32-32s32 14.4 32 32V528c0 17.6-14.4 32-32 32zM624 560c-17.6 0-32-14.4-32-32v-352c0-17.6 14.4-32 32-32s32 14.4 32 32V528c0 17.6-14.4 32-32 32z"  horiz-adv-x="1024" />

    
    <glyph glyph-name="edu" unicode="&#58881;" d="M512 346.11199999999997c-16.384 0-33.28 3.072-48.64 8.704L18.944 517.12C7.68 521.216 0 531.9680000000001 0 544.256s7.68 23.04 18.944 27.136l443.904 162.304c31.744 11.264 66.048 11.264 97.792 0l443.904-162.304c11.264-4.096 18.944-14.848 18.944-27.136s-7.68-23.04-18.944-27.136l-443.904-162.304c-15.36-5.632-32.256-8.704-48.64-8.704zM482.816 409.6c18.432-6.656 39.424-6.656 57.856 0l369.664 135.168-369.664 135.168a89.6 89.6 0 0 1-57.856-0.512L113.664 544.256 482.816 409.6zM512 25.600000000000023c-89.088 0-169.472 29.696-209.92 47.616-49.664 22.016-109.056 55.808-109.056 91.648V464.384c0 15.872 12.8 29.184 29.184 29.184 15.872 0 29.184-12.8 29.184-29.184v-293.888c19.968-21.504 138.24-87.04 260.608-87.04s241.152 65.536 260.608 87.04V464.384c0 15.872 12.8 29.184 29.184 29.184s29.184-12.8 29.184-29.184v-299.52c0-35.84-59.392-69.632-109.056-91.648-40.448-17.92-120.832-47.616-209.92-47.616z m262.656 147.456z m-525.312 0zM92.16 214.52800000000002c-10.752 0-19.456 8.704-19.456 19.456V520.192c0 10.752 8.704 19.456 19.456 19.456s19.456-8.704 19.456-19.456v-286.208c0-10.752-8.704-19.456-19.456-19.456zM92.16 225.79200000000003m-48.128 0a48.128 48.128 0 1 1 96.256 0 48.128 48.128 0 1 1-96.256 0Z"  horiz-adv-x="1024" />

    
    <glyph glyph-name="real-estate" unicode="&#58963;" d="M928.51-66V301.65700000000004a62.8972 62.8972 0 0 1-62.8972 62.8972H733.314v311.123L544.122 780.497V801.884a32.1159 32.1159 0 1 1-64.232 0v-19.9521L290.705 675.678v-311.123H159.903A64.4125 64.4125 0 0 1 95.49 300.14200000000005v-366.142h833.008Zm-64.232 64.232H731.969v212.768a32.1159 32.1159 0 0 1-64.232 0v-212.768h-123.446V626.681a32.1159 32.1159 0 1 1-64.232 0v-628.449h-126.457v212.768a32.1159 32.1159 0 0 1-64.232 0v-212.768H159.733V300.212l0.110398 0.110398h195.105V638.082l155.783 87.496 158.363-87.7468v-337.508H864.277Z"  horiz-adv-x="1024" />

    
    <glyph glyph-name="house" unicode="&#58897;" d="M1054.815052 474.074074a35.555556 35.555556 0 0 1 35.555555 35.555556v120.888889a35.555556 35.555556 0 0 1-20.859259 32.474074L559.881719 892.918519a35.555556 35.555556 0 0 1-29.155556 0L20.859496 662.9925929999999A35.555556 35.555556 0 0 1 0.000237 630.518519v-120.888889a35.555556 35.555556 0 0 1 35.555556-35.555556h78.222222V113.77777800000001H35.555793A35.555556 35.555556 0 0 1 0.000237 78.22222199999999v-170.666666a35.555556 35.555556 0 0 1 35.555556-35.555556h1019.259259a35.555556 35.555556 0 0 1 35.555555 35.555556v170.666666a35.555556 35.555556 0 0 1-35.555555 35.555556h-78.222222V474.074074zM71.111348 607.525926l474.074074 213.333333 474.074074-213.333333v-62.340741H71.111348zM580.740978 113.77777800000001V474.074074h128V113.77777800000001z m-71.111111 360.296296V113.77777800000001h-128V474.074074z m-324.740741 0h125.62963V113.77777800000001H184.889126zM1019.259496-56.88888899999995H71.111348V42.66666699999996h948.148148zM905.481719 113.77777800000001h-125.62963V474.074074h125.62963z"  horiz-adv-x="1090" />

    


  </font>
</defs>
</svg>
