<?xml version="1.0" standalone="no"?>
<!DOCTYPE svg PUBLIC "-//W3C//DTD SVG 1.1//EN" "http://www.w3.org/Graphics/SVG/1.1/DTD/svg11.dtd" >
<svg xmlns="http://www.w3.org/2000/svg" xmlns:xlink="http://www.w3.org/1999/xlink" version="1.1">
<metadata>
Created by FontForge 20170731 at Thu Nov 12 05:10:12 2020
 By Aleksey,,,
Copyright 2011 The Montserrat Project Authors (https://github.com/JulietaUla/Montserrat)
</metadata>
<defs>
<font id="Montserrat-SemiBold" horiz-adv-x="0" >
  <font-face 
    font-family="Montserrat SemiBold"
    font-weight="600"
    font-stretch="normal"
    units-per-em="2048"
    panose-1="0 0 7 0 0 0 0 0 0 0"
    ascent="1638"
    descent="-410"
    x-height="1094"
    cap-height="1434"
    bbox="-1763 -543 3367 2179"
    underline-thickness="102"
    underline-position="-307"
    unicode-range="U+000D-FB02"
  />
<missing-glyph horiz-adv-x="1202" 
d="M82 0v1434h1038v-1434h-1038zM246 143h710v1147h-710v-1147z" />
    <glyph glyph-name="fi" unicode="fi" horiz-adv-x="1511" 
d="M1217 1274q-70 0 -117 44t-47 109t47 109.5t117 44.5t116.5 -42t46.5 -105q0 -68 -46 -114t-117 -46zM203 1155q0 175 102 277t289 102q149 0 231 -59l-71 -193q-65 45 -142 45q-161 0 -161 -176v-66h301v-204h-293v-881h-256v881h-180v204h180v70zM1087 0v1094h256
v-1094h-256z" />
    <glyph glyph-name="fl" unicode="fl" horiz-adv-x="1347" 
d="M203 1155q0 175 102 277t289 102q149 0 231 -59l-71 -193q-65 45 -142 45q-161 0 -161 -176v-66h301v-204h-293v-881h-256v881h-180v204h180v70zM924 1520h256v-1520h-256v1520z" />
    <glyph glyph-name=".notdef" horiz-adv-x="1202" 
d="M82 0v1434h1038v-1434h-1038zM246 143h710v1147h-710v-1147z" />
    <glyph glyph-name=".null" 
 />
    <glyph glyph-name="nonmarkingreturn" horiz-adv-x="682" 
 />
    <glyph glyph-name="NULL" 
 />
    <glyph glyph-name="NULL" 
 />
    <glyph glyph-name="CR" unicode="&#xd;" horiz-adv-x="565" 
 />
    <glyph glyph-name="space" unicode=" " horiz-adv-x="565" 
 />
    <glyph glyph-name="exclam" unicode="!" horiz-adv-x="569" 
d="M184 475l-49 959h303l-51 -959h-203zM287 -14q-71 0 -118.5 46t-47.5 113t47.5 112.5t118.5 45.5q70 0 116 -45.5t46 -112.5t-46 -113t-116 -46z" />
    <glyph glyph-name="quotedbl" unicode="&#x22;" horiz-adv-x="845" 
d="M131 866l-16 568h221l-19 -568h-186zM526 866l-16 568h221l-18 -568h-187z" />
    <glyph glyph-name="numbersign" unicode="#" horiz-adv-x="1456" 
d="M1110 899l-45 -364h276v-187h-299l-43 -348h-186l43 348h-346l-43 -348h-186l43 348h-277v187h299l47 364h-276v186h299l43 349h186l-43 -349h344l43 349h187l-43 -349h274l2 -186h-299zM532 535h347l45 364h-344z" />
    <glyph glyph-name="dollar" unicode="$" horiz-adv-x="1288" 
d="M1217 406q0 -165 -122 -281.5t-354 -140.5v-230h-168v228q-151 9 -286 55t-215 115l92 206q75 -62 184 -103.5t225 -51.5v409q-58 14 -98.5 25.5t-93.5 31t-89.5 40t-75 52t-61.5 68.5t-38 87.5t-15 109.5q0 165 121 282.5t350 139.5v231h168v-227q243 -13 416 -125
l-84 -207q-159 92 -332 111v-414q59 -14 98.5 -25t94.5 -30.5t90.5 -39.5t75.5 -51.5t63 -68t38.5 -87t15.5 -109.5zM367 1038q0 -68 52.5 -108t153.5 -70v365q-104 -17 -155 -66.5t-51 -120.5zM741 207q108 17 160.5 64t52.5 116q0 70 -55 111.5t-158 70.5v-362z" />
    <glyph glyph-name="percent" unicode="%" horiz-adv-x="1761" 
d="M410 662q-154 0 -248 108t-94 285t94 285t248 108t249 -107.5t95 -285.5t-95 -285.5t-249 -107.5zM291 0l979 1434h200l-978 -1434h-201zM410 805q84 0 130 65t46 185t-46 185t-130 65q-81 0 -129 -66.5t-48 -183.5t48 -183.5t129 -66.5zM1350 -14q-154 0 -248 108
t-94 285t94 285t248 108t249 -108t95 -285t-95 -285t-249 -108zM1350 129q82 0 129 66t47 184t-47 184t-129 66t-129 -65.5t-47 -184.5t47 -184.5t129 -65.5z" />
    <glyph glyph-name="ampersand" unicode="&#x26;" horiz-adv-x="1445" 
d="M1409 143l-141 -166l-181 175q-200 -172 -481 -172q-228 0 -375 107t-147 275q0 133 78 234.5t254 200.5q-86 86 -123 160.5t-37 154.5q0 151 114 244.5t302 93.5q174 0 278.5 -85t104.5 -230q0 -110 -68.5 -196.5t-224.5 -174.5l309 -295q53 102 80 242l207 -68
q-41 -191 -129 -328zM672 1268q-85 0 -134 -42.5t-49 -109.5q0 -48 27 -93t102 -120q123 67 171.5 117.5t48.5 109.5q0 63 -44 100.5t-122 37.5zM625 188q178 0 311 109l-379 362q-122 -68 -172.5 -130t-50.5 -140q0 -90 80 -145.5t211 -55.5z" />
    <glyph glyph-name="quotesingle" unicode="'" horiz-adv-x="450" 
d="M131 866l-16 568h221l-19 -568h-186z" />
    <glyph glyph-name="parenleft" unicode="(" horiz-adv-x="710" 
d="M422 -397q-121 188 -185.5 432.5t-64.5 525.5t64.5 528t185.5 431h244q-242 -426 -242 -959q0 -532 242 -958h-244z" />
    <glyph glyph-name="parenright" unicode=")" horiz-adv-x="712" 
d="M289 -397h-244q244 429 244 958q0 530 -244 959h244q121 -183 185.5 -429.5t64.5 -529.5q0 -282 -64 -526.5t-186 -431.5z" />
    <glyph glyph-name="asterisk" unicode="*" horiz-adv-x="851" 
d="M819 1255l-233 -129l233 -129l-80 -139l-237 139l2 -264h-156l2 262l-235 -137l-82 139l235 129l-235 129l82 142l235 -140l-2 263h156l-2 -265l237 142z" />
    <glyph glyph-name="plus" unicode="+" horiz-adv-x="1208" 
d="M1077 819v-205h-362v-358h-219v358h-363v205h363v359h219v-359h362z" />
    <glyph glyph-name="comma" unicode="," horiz-adv-x="499" 
d="M252 326q72 0 119 -47.5t47 -122.5q0 -57 -47 -176l-105 -289h-166l82 313q-44 19 -70 58.5t-26 93.5q0 76 47 123t119 47z" />
    <glyph glyph-name="hyphen" unicode="-" horiz-adv-x="788" 
d="M113 463v213h563v-213h-563z" />
    <glyph glyph-name="period" unicode="." horiz-adv-x="499" 
d="M250 -14q-70 0 -119 48.5t-49 121.5q0 75 48.5 122.5t119.5 47.5t119.5 -47.5t48.5 -122.5q0 -73 -49 -121.5t-119 -48.5z" />
    <glyph glyph-name="slash" unicode="/" horiz-adv-x="759" 
d="M-61 -205l675 1929h230l-676 -1929h-229z" />
    <glyph glyph-name="zero" unicode="0" horiz-adv-x="1378" 
d="M688 -20q-128 0 -237 49.5t-189.5 141.5t-126 232.5t-45.5 313.5t45.5 313.5t126 232.5t189.5 141.5t237 49.5q129 0 238.5 -49.5t190 -141.5t126 -232.5t45.5 -313.5t-45.5 -313.5t-126 -232.5t-190 -141.5t-238.5 -49.5zM688 211q153 0 242.5 127.5t89.5 378.5
t-89.5 378.5t-242.5 127.5q-152 0 -241 -127.5t-89 -378.5t89 -378.5t241 -127.5z" />
    <glyph glyph-name="one" unicode="1" horiz-adv-x="780" 
d="M16 1434h570v-1434h-267v1210h-303v224z" />
    <glyph glyph-name="two" unicode="2" horiz-adv-x="1191" 
d="M453 225h675v-225h-1056v178l569 541q96 92 130 160.5t34 136.5q0 99 -67.5 153t-198.5 54q-218 0 -336 -150l-187 144q83 113 225.5 175t319.5 62q234 0 373 -111t139 -301q0 -116 -49 -219t-188 -233z" />
    <glyph glyph-name="three" unicode="3" horiz-adv-x="1191" 
d="M700 842q198 -26 303 -136.5t105 -275.5q0 -92 -35 -172.5t-103 -143t-178.5 -98.5t-250.5 -36q-153 0 -296.5 43.5t-242.5 121.5l115 207q77 -65 188.5 -103t231.5 -38q142 0 222.5 58.5t80.5 158.5t-77 156.5t-235 56.5h-131v182l326 387h-651v224h977v-179z" />
    <glyph glyph-name="four" unicode="4" horiz-adv-x="1390" 
d="M1368 551v-225h-254v-326h-258v326h-786v184l706 924h285l-666 -883h469v289h250v-289h254z" />
    <glyph glyph-name="five" unicode="5" horiz-adv-x="1196" 
d="M539 879q155 0 271 -32.5t185.5 -92t103.5 -138t34 -176.5q0 -96 -35.5 -178.5t-103.5 -146t-178.5 -99.5t-250.5 -36q-153 0 -296.5 43.5t-241.5 121.5l112 207q79 -65 190.5 -103t231.5 -38q142 0 222.5 58.5t80.5 160.5q0 110 -86.5 166.5t-298.5 56.5h-346l74 781
h842v-224h-617l-31 -331h138z" />
    <glyph glyph-name="six" unicode="6" horiz-adv-x="1284" 
d="M741 885q215 0 354.5 -121.5t139.5 -319.5q0 -209 -149.5 -336.5t-374.5 -127.5q-295 0 -458 184.5t-163 527.5q0 181 51.5 326t144 240t222 145.5t285.5 50.5q231 0 376 -92l-98 -201q-107 70 -272 70q-206 0 -323.5 -127t-117.5 -367v-2q129 150 383 150zM696 188
q126 0 203.5 66.5t77.5 177.5q0 112 -78 178t-209 66q-128 0 -209.5 -69.5t-81.5 -176.5q0 -105 79.5 -173.5t217.5 -68.5z" />
    <glyph glyph-name="seven" unicode="7" horiz-adv-x="1245" 
d="M57 1434h1114v-179l-557 -1255h-284l538 1208h-563v-243h-248v469z" />
    <glyph glyph-name="eight" unicode="8" horiz-adv-x="1335" 
d="M1020 754q233 -106 233 -342q0 -199 -159.5 -315.5t-427.5 -116.5t-426 116.5t-158 315.5q0 236 229 342q-178 98 -178 301q0 183 146.5 291t386.5 108q241 0 388.5 -108t147.5 -291q0 -203 -182 -301zM666 1245q-125 0 -198 -53.5t-73 -149.5q0 -92 72.5 -146t198.5 -54
q127 0 200.5 54t73.5 146q0 95 -74.5 149t-199.5 54zM666 188q148 0 233.5 62t85.5 170q0 106 -85.5 167.5t-233.5 61.5q-147 0 -231.5 -61.5t-84.5 -167.5q0 -109 84 -170.5t232 -61.5z" />
    <glyph glyph-name="nine" unicode="9" horiz-adv-x="1284" 
d="M573 1454q295 0 458 -184.5t163 -528.5q0 -181 -51 -326t-144 -240t-222 -145t-285 -50q-232 0 -377 92l98 200q106 -69 272 -69q207 0 324 126.5t117 366.5v2q-128 -149 -383 -149q-215 0 -354.5 121t-139.5 319q0 209 149.5 337t374.5 128zM594 758q128 0 209.5 69.5
t81.5 176.5q0 105 -79.5 173t-217.5 68q-126 0 -203.5 -66.5t-77.5 -177.5q0 -112 78 -177.5t209 -65.5z" />
    <glyph glyph-name="colon" unicode=":" horiz-adv-x="499" 
d="M250 766q-70 0 -119 48.5t-49 121.5q0 75 48.5 122.5t119.5 47.5t119.5 -47.5t48.5 -122.5q0 -73 -49 -121.5t-119 -48.5zM250 -14q-70 0 -119 48.5t-49 121.5q0 75 48.5 122.5t119.5 47.5t119.5 -47.5t48.5 -122.5q0 -73 -49 -121.5t-119 -48.5z" />
    <glyph glyph-name="semicolon" unicode=";" horiz-adv-x="499" 
d="M250 766q-70 0 -119 48.5t-49 121.5q0 75 48.5 122.5t119.5 47.5t119.5 -47.5t48.5 -122.5q0 -73 -49 -121.5t-119 -48.5zM252 326q72 0 119 -47.5t47 -122.5q0 -57 -47 -176l-105 -289h-166l82 313q-44 19 -70 58.5t-26 93.5q0 76 47 123t119 47z" />
    <glyph glyph-name="less" unicode="&#x3c;" horiz-adv-x="1208" 
d="M1077 1194v-213l-706 -264l706 -264v-213l-944 366v221z" />
    <glyph glyph-name="equal" unicode="=" horiz-adv-x="1208" 
d="M133 862v205h944v-205h-944zM133 367v204h944v-204h-944z" />
    <glyph glyph-name="greater" unicode="&#x3e;" horiz-adv-x="1208" 
d="M133 1194l944 -367v-221l-944 -366v213l707 264l-707 264v213z" />
    <glyph glyph-name="question" unicode="?" horiz-adv-x="1189" 
d="M455 475q0 61 19 115t49 94t66.5 75.5t73 67.5t66.5 63.5t49 70t19 79.5q0 87 -69 140t-187 53q-220 0 -334 -158l-199 129q184 250 555 250q229 0 365.5 -99t136.5 -274q0 -68 -19.5 -125.5t-50 -98.5t-68 -78t-75 -70t-68 -66t-50 -76t-19.5 -92h-260zM586 -14
q-71 0 -117.5 46t-46.5 113t46.5 112.5t117.5 45.5q70 0 116 -45.5t46 -112.5t-46 -113t-116 -46z" />
    <glyph glyph-name="at" unicode="@" horiz-adv-x="2117" 
d="M1069 1452q209 0 388 -67t305 -185t197 -285t71 -360q0 -266 -105 -416.5t-289 -150.5q-99 0 -166.5 45.5t-93.5 132.5q-122 -178 -368 -178q-213 0 -352.5 146.5t-139.5 375.5q0 226 139.5 372t352.5 146q221 0 342 -145v133h227v-697q0 -73 29.5 -106t76.5 -33
q83 0 127.5 95t44.5 276q0 216 -98.5 383t-277.5 258.5t-410 91.5q-175 0 -323 -57t-250.5 -157.5t-159.5 -242t-57 -307.5q0 -168 56.5 -310.5t157.5 -243.5t247.5 -157.5t320.5 -56.5q218 0 397 90l55 -164q-91 -46 -212.5 -71t-239.5 -25q-215 0 -397 70.5t-307.5 194.5
t-196 297.5t-70.5 375.5q0 200 71 372t198 295.5t310.5 194t399.5 70.5zM1051 186q133 0 218 87t85 237q0 148 -85 233.5t-218 85.5q-135 0 -219 -86.5t-84 -232.5q0 -148 84 -236t219 -88z" />
    <glyph glyph-name="A" unicode="A" horiz-adv-x="1533" 
d="M1266 0l-144 332h-716l-142 -332h-274l645 1434h262l647 -1434h-278zM496 541h538l-270 626z" />
    <glyph glyph-name="B" unicode="B" horiz-adv-x="1558" 
d="M1208 745q120 -38 189 -129.5t69 -226.5q0 -186 -143.5 -287.5t-417.5 -101.5h-712v1434h671q254 0 391.5 -100t137.5 -273q0 -107 -49.5 -188.5t-135.5 -127.5zM836 1225h-377v-396h377q139 0 213.5 50t74.5 147q0 99 -74 149t-214 50zM889 209q309 0 309 207t-309 207
h-430v-414h430z" />
    <glyph glyph-name="C" unicode="C" horiz-adv-x="1488" 
d="M856 -20q-217 0 -392 94.5t-274.5 263t-99.5 379.5t99.5 379.5t275 263t393.5 94.5q175 0 321.5 -61.5t245.5 -178.5l-172 -161q-155 168 -383 168q-223 0 -367.5 -141.5t-144.5 -362.5t144.5 -362.5t367.5 -141.5q229 0 383 170l172 -164q-100 -117 -246 -178t-323 -61z
" />
    <glyph glyph-name="D" unicode="D" horiz-adv-x="1691" 
d="M193 0v1434h626q230 0 408 -89t276.5 -252.5t98.5 -375.5t-98.5 -375.5t-276.5 -252.5t-408 -89h-626zM459 225h348q239 0 382.5 134.5t143.5 357.5t-143.5 357t-382.5 134h-348v-983z" />
    <glyph glyph-name="E" unicode="E" horiz-adv-x="1372" 
d="M459 223h809v-223h-1075v1434h1046v-224h-780v-372h692v-220h-692v-395z" />
    <glyph glyph-name="F" unicode="F" horiz-adv-x="1304" 
d="M1239 1210h-780v-436h692v-225h-692v-549h-266v1434h1046v-224z" />
    <glyph glyph-name="G" unicode="G" horiz-adv-x="1581" 
d="M1171 287v446h252v-571q-110 -89 -257.5 -135.5t-303.5 -46.5q-219 0 -395.5 94.5t-276.5 263t-100 379.5t100 379.5t277 263t399 94.5q181 0 328 -59t248 -174l-168 -164q-164 164 -395 164q-229 0 -375 -141t-146 -363q0 -219 146 -361.5t373 -142.5q166 0 294 74z" />
    <glyph glyph-name="H" unicode="H" horiz-adv-x="1658" 
d="M1200 1434h266v-1434h-266v614h-741v-614h-266v1434h266v-592h741v592z" />
    <glyph glyph-name="I" unicode="I" horiz-adv-x="653" 
d="M193 0v1434h266v-1434h-266z" />
    <glyph glyph-name="J" unicode="J" horiz-adv-x="1079" 
d="M416 -20q-136 0 -253 53.5t-190 152.5l152 183q121 -164 285 -164q223 0 223 264v741h-510v224h776v-951q0 -252 -122.5 -377.5t-360.5 -125.5z" />
    <glyph glyph-name="K" unicode="K" horiz-adv-x="1492" 
d="M1192 0l-506 600l-227 -233v-367h-266v1434h266v-736l708 736h299l-602 -641l639 -793h-311z" />
    <glyph glyph-name="L" unicode="L" horiz-adv-x="1226" 
d="M193 0v1434h266v-1209h749v-225h-1015z" />
    <glyph glyph-name="M" unicode="M" horiz-adv-x="1955" 
d="M1761 0h-252l-2 950l-471 -786h-118l-472 774v-938h-253v1434h219l569 -951l559 951h219z" />
    <glyph glyph-name="N" unicode="N" horiz-adv-x="1658" 
d="M1202 1434h264v-1434h-219l-790 971v-971h-264v1434h219l790 -971v971z" />
    <glyph glyph-name="O" unicode="O" horiz-adv-x="1724" 
d="M862 -20q-219 0 -395.5 95t-276.5 264t-100 378t100 378t276.5 264t395.5 95t395.5 -95t276.5 -263.5t100 -378.5t-100 -378.5t-276.5 -263.5t-395.5 -95zM862 213q217 0 360.5 142.5t143.5 361.5t-143.5 361.5t-360.5 142.5t-360.5 -142.5t-143.5 -361.5t143.5 -361.5
t360.5 -142.5z" />
    <glyph glyph-name="P" unicode="P" horiz-adv-x="1486" 
d="M782 1434q283 0 447 -136.5t164 -373.5q0 -236 -164 -373t-447 -137h-323v-414h-266v1434h589zM770 639q173 0 263.5 74.5t90.5 210.5t-90.5 210t-263.5 74h-311v-569h311z" />
    <glyph glyph-name="Q" unicode="Q" horiz-adv-x="1724" 
d="M1583 4l123 -147q-144 -170 -375 -170q-147 0 -270.5 66t-280.5 231q-149 13 -277 74t-219 156.5t-142.5 225.5t-51.5 277q0 209 100 378t276.5 264t395.5 95t395.5 -95t276.5 -263.5t100 -378.5q0 -257 -147 -448t-389 -259q60 -65 117 -93t122 -28q140 0 246 115z
M358 717q0 -219 143.5 -361.5t360.5 -142.5t360.5 142.5t143.5 361.5t-143.5 361.5t-360.5 142.5t-360.5 -142.5t-143.5 -361.5z" />
    <glyph glyph-name="R" unicode="R" horiz-adv-x="1497" 
d="M1417 0h-287l-292 420q-18 -2 -56 -2h-323v-418h-266v1434h589q283 0 447 -136.5t164 -373.5q0 -162 -79.5 -279t-226.5 -174zM1124 924q0 136 -90.5 210t-263.5 74h-311v-571h311q173 0 263.5 75t90.5 212z" />
    <glyph glyph-name="S" unicode="S" horiz-adv-x="1288" 
d="M637 -20q-166 0 -320.5 47.5t-244.5 124.5l92 206q88 -70 215.5 -113.5t257.5 -43.5q160 0 238.5 51t78.5 135q0 49 -29 85.5t-78.5 59t-113.5 40t-134.5 34t-141 36.5t-134.5 51t-113.5 73t-78.5 108.5t-29 151.5q0 88 36 164.5t105 136t181.5 93.5t255.5 34
q131 0 258 -33t219 -94l-84 -207q-192 113 -395 113q-158 0 -234.5 -54t-76.5 -141q0 -61 47 -102.5t122 -64.5t165.5 -43t181 -49t165.5 -70.5t122 -118.5t47 -184q0 -87 -36 -163t-106 -135.5t-182.5 -93.5t-255.5 -34z" />
    <glyph glyph-name="T" unicode="T" horiz-adv-x="1232" 
d="M483 0v1208h-475v226h1217v-226h-475v-1208h-267z" />
    <glyph glyph-name="U" unicode="U" horiz-adv-x="1615" 
d="M809 -20q-297 0 -463 167t-166 478v809h266v-799q0 -422 365 -422q363 0 363 422v799h262v-809q0 -311 -165.5 -478t-461.5 -167z" />
    <glyph glyph-name="V" unicode="V" horiz-adv-x="1492" 
d="M1237 1434h266l-624 -1434h-263l-626 1434h289l477 -1106z" />
    <glyph glyph-name="W" unicode="W" horiz-adv-x="2342" 
d="M2034 1434h254l-476 -1434h-282l-354 1061l-361 -1061h-285l-475 1434h277l356 -1090l371 1090h246l362 -1096z" />
    <glyph glyph-name="X" unicode="X" horiz-adv-x="1419" 
d="M1403 0h-307l-389 545l-385 -545h-304l533 731l-504 703h301l367 -510l362 510h289l-502 -693z" />
    <glyph glyph-name="Y" unicode="Y" horiz-adv-x="1353" 
d="M1372 1434l-561 -928v-506h-266v502l-563 932h284l420 -699l424 699h262z" />
    <glyph glyph-name="Z" unicode="Z" horiz-adv-x="1357" 
d="M436 225h871v-225h-1223v178l844 1030h-830v226h1182v-179z" />
    <glyph glyph-name="bracketleft" unicode="[" horiz-adv-x="716" 
d="M193 -397v1917h489v-205h-233v-1508h233v-204h-489z" />
    <glyph glyph-name="backslash" unicode="\" horiz-adv-x="759" 
d="M823 -205h-229l-676 1929h229z" />
    <glyph glyph-name="bracketright" unicode="]" horiz-adv-x="716" 
d="M522 -397h-487v204h231v1508h-231v205h487v-1917z" />
    <glyph glyph-name="asciicircum" unicode="^" horiz-adv-x="1210" 
d="M1075 291h-201l-268 649l-270 -649h-201l367 852h209z" />
    <glyph glyph-name="underscore" unicode="_" horiz-adv-x="1024" 
d="M0 -156v156h1024v-156h-1024z" />
    <glyph glyph-name="grave" unicode="`" horiz-adv-x="1228" 
d="M565 1243l-356 281h301l276 -281h-221z" />
    <glyph glyph-name="a" unicode="a" horiz-adv-x="1243" 
d="M586 1106q240 0 368.5 -116t128.5 -349v-641h-241v133q-95 -147 -344 -147q-185 0 -296.5 91.5t-111.5 235.5q0 71 25 128.5t77.5 102.5t142 70t210.5 25h282v16q0 114 -68.5 176t-203.5 62q-93 0 -182 -29t-150 -80l-100 187q86 66 207 100.5t256 34.5zM551 172
q97 0 171 43.5t105 126.5v127h-264q-221 0 -221 -145q0 -70 56 -111t153 -41z" />
    <glyph glyph-name="b" unicode="b" horiz-adv-x="1404" 
d="M774 1106q159 0 285 -68t198 -196t72 -295q0 -252 -156.5 -406.5t-398.5 -154.5q-234 0 -362 155v-141h-244v1520h256v-559q130 145 350 145zM745 205q141 0 232.5 94t91.5 248t-91.5 248t-232.5 94t-233 -94t-92 -248t92 -248t233 -94z" />
    <glyph glyph-name="c" unicode="c" horiz-adv-x="1189" 
d="M670 -14q-260 0 -426 157.5t-166 403.5t166 402.5t426 156.5q161 0 283 -65.5t184 -188.5l-197 -115q-96 152 -272 152q-144 0 -238 -93.5t-94 -248.5q0 -156 94 -249t238 -93q176 0 272 151l197 -114q-63 -123 -185 -189.5t-282 -66.5z" />
    <glyph glyph-name="d" unicode="d" horiz-adv-x="1406" 
d="M983 1520h256v-1520h-246v141q-128 -155 -362 -155q-158 0 -283.5 68.5t-197.5 197t-72 295.5t72 295t197.5 196t283.5 68q225 0 352 -148v562zM662 205q141 0 233 94t92 248t-92 248t-233 94t-233.5 -94t-92.5 -248t92.5 -248t233.5 -94z" />
    <glyph glyph-name="e" unicode="e" horiz-adv-x="1273" 
d="M1196 541q0 -26 -4 -76h-858q23 -121 117.5 -191.5t236.5 -70.5q181 0 297 119l137 -158q-149 -178 -440 -178q-272 0 -438 157t-166 404q0 244 160 401.5t405 157.5q242 0 397.5 -155.5t155.5 -409.5zM643 901q-124 0 -208 -72.5t-103 -193.5h620q-15 119 -99.5 192.5
t-209.5 73.5z" />
    <glyph glyph-name="f" unicode="f" horiz-adv-x="755" 
d="M612 1327q-161 0 -161 -176v-66h301v-204h-293v-881h-256v881h-180v204h180v70q0 175 102 277t289 102q149 0 231 -59l-71 -193q-65 45 -142 45z" />
    <glyph glyph-name="g" unicode="g" horiz-adv-x="1421" 
d="M1010 1094h243v-928q0 -578 -589 -578q-157 0 -299 40.5t-234 115.5l115 193q72 -60 181 -96t222 -36q180 0 264 82t84 250v58q-134 -146 -366 -146q-156 0 -281.5 66t-198.5 188t-73 277q0 234 157.5 380t395.5 146q249 0 379 -158v146zM670 266q145 0 238 87.5
t93 226.5q0 137 -93 223t-238 86q-147 0 -240.5 -86t-93.5 -223q0 -139 93.5 -226.5t240.5 -87.5z" />
    <glyph glyph-name="h" unicode="h" horiz-adv-x="1402" 
d="M788 1106q100 0 182 -29t144 -86.5t96.5 -150t34.5 -213.5v-627h-256v594q0 144 -67.5 216.5t-192.5 72.5q-140 0 -222.5 -85t-82.5 -245v-553h-256v1520h256v-553q130 139 364 139z" />
    <glyph glyph-name="i" unicode="i" horiz-adv-x="591" 
d="M297 1274q-70 0 -117 44t-47 109t47 109.5t117 44.5t117 -42t47 -105q0 -68 -46.5 -114t-117.5 -46zM168 0v1094h256v-1094h-256z" />
    <glyph glyph-name="j" unicode="j" horiz-adv-x="604" 
d="M307 1274q-70 0 -117 44t-47 109t47 109.5t117 44.5t117 -42t47 -105q0 -68 -46.5 -114t-117.5 -46zM55 -412q-161 0 -245 64l73 190q58 -43 150 -43q147 0 147 174v1121h256v-1114q0 -182 -100 -287t-281 -105z" />
    <glyph glyph-name="k" unicode="k" horiz-adv-x="1302" 
d="M993 0l-379 469l-190 -180v-289h-256v1520h256v-918l530 492h308l-457 -459l500 -635h-312z" />
    <glyph glyph-name="l" unicode="l" horiz-adv-x="591" 
d="M168 0v1520h256v-1520h-256z" />
    <glyph glyph-name="m" unicode="m" horiz-adv-x="2156" 
d="M1548 1106q207 0 328 -120t121 -359v-627h-256v594q0 144 -63.5 216.5t-182.5 72.5q-130 0 -207.5 -84.5t-77.5 -243.5v-555h-256v594q0 144 -63 216.5t-182 72.5q-131 0 -208 -84.5t-77 -243.5v-555h-256v1094h244v-140q127 152 358 152q123 0 218 -45.5t151 -136.5
q67 86 173.5 134t235.5 48z" />
    <glyph glyph-name="n" unicode="n" horiz-adv-x="1402" 
d="M788 1106q100 0 182 -29t144 -86.5t96.5 -150t34.5 -213.5v-627h-256v594q0 144 -67.5 216.5t-192.5 72.5q-140 0 -222.5 -85t-82.5 -245v-553h-256v1094h244v-142q129 154 376 154z" />
    <glyph glyph-name="o" unicode="o" horiz-adv-x="1320" 
d="M659 -14q-253 0 -417 158t-164 403t164 402t417 157q255 0 419.5 -156.5t164.5 -402.5t-164.5 -403.5t-419.5 -157.5zM659 205q142 0 234 94t92 248t-92 248t-234 94q-140 0 -231.5 -94t-91.5 -248t91.5 -248t231.5 -94z" />
    <glyph glyph-name="p" unicode="p" horiz-adv-x="1404" 
d="M774 1106q159 0 285 -68.5t198 -196.5t72 -294q0 -252 -156.5 -406.5t-398.5 -154.5q-221 0 -350 147v-530h-256v1491h244v-144q129 156 362 156zM745 205q141 0 232.5 94t91.5 248t-91.5 248t-232.5 94t-233 -94t-92 -248t92 -248t233 -94z" />
    <glyph glyph-name="q" unicode="q" horiz-adv-x="1404" 
d="M993 1094h244v-1491h-256v530q-129 -147 -350 -147q-242 0 -397.5 154.5t-155.5 406.5q0 251 155.5 405t397.5 154q233 0 362 -156v144zM659 205q142 0 234 94t92 248t-92 248t-234 94q-140 0 -231.5 -94t-91.5 -248t91.5 -248t231.5 -94z" />
    <glyph glyph-name="r" unicode="r" horiz-adv-x="860" 
d="M412 934q111 172 389 172v-244q-34 6 -60 6q-149 0 -233 -86.5t-84 -251.5v-530h-256v1094h244v-160z" />
    <glyph glyph-name="s" unicode="s" horiz-adv-x="1054" 
d="M506 -14q-134 0 -261 34.5t-202 88.5l98 194q73 -48 176.5 -78t204.5 -30q230 0 230 120q0 37 -29 61.5t-76.5 35.5t-108.5 22t-124 20t-124 31.5t-108.5 54t-76.5 89t-29 135.5q0 156 130 249t351 93q111 0 224.5 -25.5t185.5 -68.5l-99 -195q-140 82 -313 82
q-113 0 -171 -33.5t-58 -89.5q0 -44 37 -71.5t97 -40.5t131.5 -23.5t143.5 -29t132 -49t97 -91t37 -147.5q0 -155 -133 -246.5t-362 -91.5z" />
    <glyph glyph-name="t" unicode="t" horiz-adv-x="868" 
d="M754 242l71 -183q-91 -73 -245 -73q-181 0 -279 94t-98 274v527h-180v204h180v250h256v-250h293v-204h-293v-521q0 -79 38.5 -121t112.5 -42q87 0 144 45z" />
    <glyph glyph-name="u" unicode="u" horiz-adv-x="1394" 
d="M971 1094h256v-1094h-244v139q-61 -74 -153 -113.5t-199 -39.5q-218 0 -344.5 121.5t-126.5 361.5v625h256v-590q0 -147 66 -220t190 -73q137 0 218 85t81 245v553z" />
    <glyph glyph-name="v" unicode="v" horiz-adv-x="1183" 
d="M946 1094h246l-469 -1094h-264l-469 1094h266l340 -811z" />
    <glyph glyph-name="w" unicode="w" horiz-adv-x="1882" 
d="M1647 1094h227l-404 -1094h-245l-283 754l-287 -754h-245l-402 1094h242l289 -807l301 807h215l295 -811z" />
    <glyph glyph-name="x" unicode="x" horiz-adv-x="1173" 
d="M1153 0h-289l-280 379l-283 -379h-283l426 555l-407 539h285l268 -359l268 359h277l-410 -535z" />
    <glyph glyph-name="y" unicode="y" horiz-adv-x="1183" 
d="M946 1094h246l-512 -1182q-72 -178 -174.5 -251t-247.5 -73q-82 0 -161.5 27t-131.5 74l103 188q79 -76 188 -76q67 0 111.5 35t81.5 117l18 43l-477 1098h266l344 -809z" />
    <glyph glyph-name="z" unicode="z" horiz-adv-x="1089" 
d="M403 205h619v-205h-944v162l600 727h-588v205h916v-162z" />
    <glyph glyph-name="braceleft" unicode="{" horiz-adv-x="757" 
d="M528 770q0 -93 -28.5 -140.5t-91.5 -68.5q63 -21 91.5 -68.5t28.5 -140.5v-389q0 -75 38.5 -115.5t113.5 -40.5h43v-204h-102q-172 0 -260.5 85t-88.5 249v421q0 99 -92 99h-67v209h67q92 0 92 98v422q0 164 88.5 249t260.5 85h102v-205h-43q-75 0 -113.5 -40.5
t-38.5 -115.5v-389z" />
    <glyph glyph-name="bar" unicode="|" horiz-adv-x="620" 
d="M193 -397v1917h235v-1917h-235z" />
    <glyph glyph-name="braceright" unicode="}" horiz-adv-x="757" 
d="M578 666h69v-209h-69q-43 0 -67 -24.5t-24 -74.5v-421q0 -163 -88.5 -248.5t-261.5 -85.5h-102v204h43q77 0 115 40.5t38 115.5v389q0 93 28 140.5t91 68.5q-63 21 -91 68.5t-28 140.5v389q0 75 -38 115.5t-115 40.5h-43v205h102q173 0 261.5 -85.5t88.5 -248.5v-422
q0 -98 91 -98z" />
    <glyph glyph-name="asciitilde" unicode="~" horiz-adv-x="1208" 
d="M811 528q-54 0 -104.5 19.5t-88 47t-72 55.5t-69.5 47.5t-67 19.5q-60 0 -96.5 -47t-39.5 -125h-163q4 179 81.5 271.5t204.5 92.5q55 0 106 -19.5t89 -47.5t72 -56t69 -47.5t66 -19.5q61 0 97.5 47.5t39.5 126.5h162q-3 -180 -80.5 -272.5t-206.5 -92.5z" />
    <glyph glyph-name="uni00A0" unicode="&#xa0;" horiz-adv-x="565" 
 />
    <glyph glyph-name="exclamdown" unicode="&#xa1;" horiz-adv-x="569" 
d="M287 1106q70 0 116 -46t46 -114q0 -65 -46 -110t-116 -45q-71 0 -118.5 45t-47.5 110q0 68 47 114t119 46zM387 618l51 -933h-303l49 933h203z" />
    <glyph glyph-name="cent" unicode="&#xa2;" horiz-adv-x="1189" 
d="M735 211q131 25 205 145l197 -114q-57 -110 -161 -175t-241 -79v-234h-166v238q-221 31 -356 183t-135 372t135 371t356 182v239h166v-235q138 -12 242 -76.5t160 -175.5l-197 -115q-75 121 -205 146v-672zM336 547q0 -127 64 -214.5t169 -115.5v660
q-106 -30 -169.5 -117t-63.5 -213z" />
    <glyph glyph-name="sterling" unicode="&#xa3;" horiz-adv-x="1345" 
d="M543 633v-410h739v-223h-1221v223h215v410h-215v168h215v94q0 258 168 408.5t469 150.5q245 0 404 -96l-84 -217q-125 80 -334 80q-175 0 -265.5 -83t-90.5 -241v-96h518v-168h-518z" />
    <glyph glyph-name="currency" unicode="&#xa4;" horiz-adv-x="1433" 
d="M1266 655q0 -164 -99 -307l207 -205l-145 -153l-217 215q-133 -84 -295 -84q-164 0 -295 86l-219 -217l-146 153l209 209q-96 140 -96 303q0 160 92 299l-205 203l146 154l211 -209q136 90 303 90q162 0 303 -88l209 207l145 -154l-203 -201q95 -138 95 -301zM717 328
q141 0 243.5 96t102.5 231q0 136 -102.5 233t-243.5 97t-241.5 -97t-100.5 -233q0 -135 100.5 -231t241.5 -96z" />
    <glyph glyph-name="yen" unicode="&#xa5;" horiz-adv-x="1476" 
d="M1495 1434l-555 -795h340v-143h-408v-140h408v-143h-408v-213h-266v213h-407v143h407v140h-407v143h338l-555 795h282l481 -689l482 689h268z" />
    <glyph glyph-name="brokenbar" unicode="&#xa6;" horiz-adv-x="620" 
d="M193 803v717h235v-717h-235zM193 -397v716h235v-716h-235z" />
    <glyph glyph-name="section" unicode="&#xa7;" horiz-adv-x="1046" 
d="M981 602q0 -77 -37 -143t-104 -111q98 -78 98 -219q0 -155 -124 -251.5t-329 -96.5q-122 0 -245 35.5t-191 89.5l76 190q70 -53 169.5 -86t197.5 -33q103 0 161 38.5t58 107.5q0 48 -35.5 80t-92.5 49.5t-126 32t-137.5 36.5t-125.5 54.5t-92.5 93.5t-35.5 147
q0 174 141 265q-96 79 -96 217q0 158 130.5 254t360.5 96q102 0 215.5 -26.5t177.5 -73.5l-75 -187q-143 90 -334 90q-123 0 -185.5 -37.5t-62.5 -107.5q0 -40 27.5 -69t73 -44.5t103 -31.5t118 -29.5t118 -39.5t103 -60t73 -93t27.5 -137zM289 633q0 -27 9.5 -49t30 -39
t42 -29t57.5 -23t62.5 -18t71.5 -17.5t71 -17.5q57 21 91 62t34 96q0 27 -9.5 49t-30 39t-41.5 28.5t-57 23t-62.5 18.5t-72 17.5t-71.5 17.5q-57 -21 -91 -62t-34 -96z" />
    <glyph glyph-name="dieresis" unicode="&#xa8;" horiz-adv-x="1228" 
d="M416 1266q-53 0 -88 34.5t-35 88.5q0 55 35 89.5t88 34.5t88 -34.5t35 -89.5q0 -54 -35 -88.5t-88 -34.5zM813 1266q-53 0 -88 34.5t-35 88.5q0 55 35 89.5t88 34.5t88 -34.5t35 -89.5q0 -54 -35 -88.5t-88 -34.5z" />
    <glyph glyph-name="copyright" unicode="&#xa9;" horiz-adv-x="1626" 
d="M811 -6q-150 0 -284 56.5t-230 153.5t-151.5 230.5t-55.5 282.5t56 282.5t151.5 230.5t230.5 153.5t287 56.5t286 -55.5t229.5 -151t150.5 -228.5t55 -284t-56.5 -285.5t-152.5 -231.5t-231 -153.5t-285 -56.5zM811 106q169 0 308.5 81.5t218.5 222.5t79 311t-77.5 308.5
t-215.5 218t-309 79.5q-172 0 -311.5 -81t-218 -220.5t-78.5 -308.5t78 -309t217 -221t309 -81zM834 299q-189 0 -311 117.5t-122 300.5t122 300.5t311 117.5q115 0 204.5 -48t137.5 -131l-150 -98q-64 103 -195 103q-100 0 -166.5 -67t-66.5 -177t66.5 -177t166.5 -67
q131 0 195 102l150 -94q-48 -86 -137 -134t-205 -48z" />
    <glyph glyph-name="ordfeminine" unicode="&#xaa;" horiz-adv-x="835" 
d="M389 1534q326 0 326 -283v-379h-166v74q-65 -82 -221 -82q-125 0 -192.5 54.5t-67.5 142.5q0 89 70.5 140.5t217.5 51.5h181v7q0 139 -168 139q-58 0 -116.5 -18.5t-98.5 -49.5l-66 115q55 41 137.5 64.5t163.5 23.5zM369 983q123 0 168 86v80h-156q-143 0 -143 -82
q0 -41 34.5 -62.5t96.5 -21.5z" />
    <glyph glyph-name="guillemotleft" unicode="&#xab;" horiz-adv-x="1095" 
d="M377 152l-291 395l291 397h231l-284 -397l284 -395h-231zM803 152l-291 395l291 397h231l-284 -397l284 -395h-231z" />
    <glyph glyph-name="logicalnot" unicode="&#xac;" horiz-adv-x="1208" 
d="M1077 821v-567h-219v362h-725v205h944z" />
    <glyph glyph-name="uni00AD" unicode="&#xad;" horiz-adv-x="788" 
d="M113 463v213h563v-213h-563z" />
    <glyph glyph-name="registered" unicode="&#xae;" horiz-adv-x="1626" 
d="M815 1440q152 0 286 -55.5t229.5 -151t150.5 -228.5t55 -284t-56.5 -285.5t-152.5 -231.5t-231 -153.5t-285 -56.5t-284 56.5t-230 153.5t-151.5 230.5t-55.5 282.5t56 282.5t151.5 230.5t230.5 153.5t287 56.5zM811 106q169 0 308.5 81.5t218.5 222.5t79 311
t-77.5 308.5t-215.5 218t-309 79.5q-172 0 -311.5 -81t-218 -220.5t-78.5 -308.5t78 -309t217 -221t309 -81zM1186 840q0 -183 -162 -250l180 -277h-176l-160 246h-22h-160v-246h-176v807h336q159 0 249.5 -76t90.5 -204zM684 696h152q86 0 133 38t47 106t-47 104.5
t-133 36.5h-152v-285z" />
    <glyph glyph-name="macron" unicode="&#xaf;" horiz-adv-x="1228" 
d="M260 1307v153h709v-153h-709z" />
    <glyph glyph-name="degree" unicode="&#xb0;" horiz-adv-x="858" 
d="M428 764q-146 0 -247 99.5t-101 242.5q0 145 101 244.5t247 99.5t247 -99.5t101 -244.5q0 -143 -101 -242.5t-247 -99.5zM428 899q88 0 146.5 59.5t58.5 147.5q0 89 -58.5 149t-146.5 60t-147.5 -59.5t-59.5 -149.5q0 -89 59.5 -148t147.5 -59z" />
    <glyph glyph-name="plusminus" unicode="&#xb1;" horiz-adv-x="1208" 
d="M715 950h362v-202h-362v-345h-219v345h-363v202h363v346h219v-346zM133 0v205h944v-205h-944z" />
    <glyph glyph-name="uni00B2" unicode="&#xb2;" horiz-adv-x="880" 
d="M360 815h426v-145h-696v114l367 320q64 57 87 93.5t23 72.5q0 49 -44 79.5t-132 30.5q-144 0 -213 -90l-129 92q53 71 144 111.5t213 40.5q162 0 254 -70t92 -182q0 -66 -32.5 -123t-125.5 -139z" />
    <glyph glyph-name="uni00B3" unicode="&#xb3;" horiz-adv-x="880" 
d="M526 1174q130 -15 200.5 -81t70.5 -167q0 -115 -100.5 -193t-284.5 -78q-109 0 -210 28t-157 73l72 137q53 -39 131.5 -61.5t163.5 -22.5q99 0 149.5 31t50.5 86q0 116 -190 116h-107v119l205 213h-442v146h674v-115z" />
    <glyph glyph-name="acute" unicode="&#xb4;" horiz-adv-x="1228" 
d="M442 1243l277 281h301l-356 -281h-222z" />
    <glyph glyph-name="uni00B5" unicode="&#xb5;" horiz-adv-x="1404" 
d="M981 1094h256v-1094h-240v145q-54 -82 -137 -120.5t-176 -38.5q-167 0 -260 96v-479h-256v1491h256v-590q0 -147 66.5 -220t191.5 -73q137 0 218 85t81 245v553z" />
    <glyph glyph-name="paragraph" unicode="&#xb6;" horiz-adv-x="1363" 
d="M465 -205v965q-191 5 -310.5 107.5t-119.5 273.5q0 174 128 276.5t343 102.5h665v-1725h-210v1532h-285v-1532h-211z" />
    <glyph glyph-name="periodcentered" unicode="&#xb7;" horiz-adv-x="581" 
d="M291 399q-72 0 -120 47.5t-48 124.5q0 74 48.5 122t119.5 48q73 0 120.5 -47.5t47.5 -122.5q0 -77 -47.5 -124.5t-120.5 -47.5z" />
    <glyph glyph-name="cedilla" unicode="&#xb8;" horiz-adv-x="1228" 
d="M555 -467q-112 0 -188 43l47 121q62 -33 139 -33q109 0 109 74q0 67 -109 67h-64l56 209h139l-29 -114q88 -10 133.5 -56.5t45.5 -115.5q0 -89 -76.5 -142t-202.5 -53z" />
    <glyph glyph-name="uni00B9" unicode="&#xb9;" horiz-adv-x="880" 
d="M569 815h197v-145h-608v145h225v559h-209v146h395v-705z" />
    <glyph glyph-name="ordmasculine" unicode="&#xba;" horiz-adv-x="864" 
d="M432 864q-163 0 -269 94.5t-106 241.5q0 145 106 239.5t269 94.5q164 0 269.5 -94.5t105.5 -239.5q0 -148 -105.5 -242t-269.5 -94zM432 1010q90 0 144.5 52t54.5 138q0 85 -55 137t-144 52t-144 -52t-55 -137q0 -86 54.5 -138t144.5 -52z" />
    <glyph glyph-name="guillemotright" unicode="&#xbb;" horiz-adv-x="1095" 
d="M293 152h-232l285 395l-285 397h232l291 -397zM719 152h-232l285 395l-285 397h232l291 -397z" />
    <glyph glyph-name="onequarter" unicode="&#xbc;" horiz-adv-x="2127" 
d="M766 729v-145h-608v145h225v559h-209v146h395v-705h197zM1454 1434h199l-979 -1434h-199zM2081 334v-146h-152v-188h-180v188h-467v119l399 543h203l-381 -516h262v158h164v-158h152z" />
    <glyph glyph-name="onehalf" unicode="&#xbd;" horiz-adv-x="2127" 
d="M766 729v-145h-608v145h225v559h-209v146h395v-705h197zM1454 1434h199l-979 -1434h-199zM1608 145h426v-145h-697v115l367 319q65 57 88 93.5t23 72.5q0 49 -44.5 80t-132.5 31q-144 0 -213 -90l-129 92q112 151 357 151q162 0 254 -70t92 -182q0 -66 -32.5 -123
t-125.5 -139z" />
    <glyph glyph-name="threequarters" unicode="&#xbe;" horiz-adv-x="2127" 
d="M797 840q0 -115 -100.5 -193t-284.5 -78q-109 0 -210 28t-157 73l72 137q53 -39 131.5 -61.5t163.5 -22.5q99 0 149.5 31t50.5 86q0 116 -190 116h-107v119l205 213h-442v146h674v-115l-226 -232q130 -15 200.5 -80.5t70.5 -166.5zM1454 1434h199l-979 -1434h-199z
M2081 334v-146h-152v-188h-180v188h-467v119l399 543h203l-381 -516h262v158h164v-158h152z" />
    <glyph glyph-name="questiondown" unicode="&#xbf;" horiz-adv-x="1189" 
d="M604 791q-71 0 -117.5 45t-46.5 110q0 68 46.5 114t117.5 46t117.5 -46t46.5 -114q0 -65 -46.5 -110t-117.5 -45zM627 -336q-227 0 -364.5 97t-137.5 264q0 67 19 123.5t50 96.5t68 76t74.5 68.5t68.5 65t50.5 74t19.5 89.5h260q0 -60 -19 -112.5t-49 -91.5t-66.5 -74
t-73 -66.5t-66.5 -62.5t-49 -69t-19 -79q0 -77 70 -127.5t186 -50.5q217 0 334 158l197 -129q-87 -120 -226.5 -185t-326.5 -65z" />
    <glyph glyph-name="Agrave" unicode="&#xc0;" horiz-adv-x="1533" 
d="M938 1550h-221l-357 281h302zM1266 0l-144 332h-716l-142 -332h-274l645 1434h262l647 -1434h-278zM496 541h538l-270 626z" />
    <glyph glyph-name="Aacute" unicode="&#xc1;" horiz-adv-x="1533" 
d="M1171 1831l-356 -281h-221l276 281h301zM1266 0l-144 332h-716l-142 -332h-274l645 1434h262l647 -1434h-278zM496 541h538l-270 626z" />
    <glyph glyph-name="Acircumflex" unicode="&#xc2;" horiz-adv-x="1533" 
d="M766 1702l-180 -152h-211l274 281h234l274 -281h-211zM1266 0l-144 332h-716l-142 -332h-274l645 1434h262l647 -1434h-278zM496 541h538l-270 626z" />
    <glyph glyph-name="Atilde" unicode="&#xc3;" horiz-adv-x="1533" 
d="M635 1686q-43 0 -70 -32.5t-30 -90.5h-138q3 126 63 200t158 74q46 0 90 -21t72.5 -46.5t60.5 -46.5t56 -21q43 0 70 31t30 86h138q-3 -121 -63.5 -195t-158.5 -74q-46 0 -90 21t-72 47t-60 47t-56 21zM1266 0l-144 332h-716l-142 -332h-274l645 1434h262l647 -1434h-278
zM496 541h538l-270 626z" />
    <glyph glyph-name="Adieresis" unicode="&#xc4;" horiz-adv-x="1533" 
d="M567 1573q-53 0 -88 34.5t-35 88.5q0 55 35 90t88 35t88 -35t35 -90q0 -54 -35 -88.5t-88 -34.5zM965 1573q-53 0 -88 34.5t-35 88.5q0 55 35 90t88 35t87.5 -35t34.5 -90q0 -54 -34.5 -88.5t-87.5 -34.5zM1266 0l-144 332h-716l-142 -332h-274l645 1434h262l647 -1434
h-278zM496 541h538l-270 626z" />
    <glyph glyph-name="Aring" unicode="&#xc5;" horiz-adv-x="1533" 
d="M764 1554q-101 0 -169.5 68.5t-68.5 165.5q0 99 68.5 168t169.5 69q102 0 171 -69t69 -168q0 -98 -69 -166t-171 -68zM764 1921q-55 0 -92 -37.5t-37 -95.5q0 -56 36.5 -92.5t92.5 -36.5q57 0 94 36.5t37 92.5q0 57 -37.5 95t-93.5 38zM1266 0l-144 332h-716l-142 -332
h-274l645 1434h262l647 -1434h-278zM496 541h538l-270 626z" />
    <glyph glyph-name="AE" unicode="&#xc6;" horiz-adv-x="2177" 
d="M1264 223h809v-223h-1076v332h-544l-189 -332h-274l831 1434h1223v-224h-780v-372h692v-220h-692v-395zM571 541h426v669h-45z" />
    <glyph glyph-name="Ccedilla" unicode="&#xc7;" horiz-adv-x="1488" 
d="M870 213q229 0 383 170l172 -164q-97 -112 -236 -173t-308 -66l-21 -80q88 -10 133 -56.5t45 -115.5q0 -89 -76 -142t-202 -53q-113 0 -189 43l47 121q62 -33 140 -33q108 0 108 74q0 67 -108 67h-64l47 181q-141 18 -261.5 80.5t-206.5 157t-134.5 222t-48.5 271.5
q0 211 99.5 379.5t275 263t393.5 94.5q175 0 321.5 -61.5t245.5 -178.5l-172 -161q-155 168 -383 168q-223 0 -367.5 -141.5t-144.5 -362.5t144.5 -362.5t367.5 -141.5z" />
    <glyph glyph-name="Egrave" unicode="&#xc8;" horiz-adv-x="1372" 
d="M891 1550h-221l-357 281h301zM459 223h809v-223h-1075v1434h1046v-224h-780v-372h692v-220h-692v-395z" />
    <glyph glyph-name="Eacute" unicode="&#xc9;" horiz-adv-x="1372" 
d="M1124 1831l-356 -281h-221l276 281h301zM459 223h809v-223h-1075v1434h1046v-224h-780v-372h692v-220h-692v-395z" />
    <glyph glyph-name="Ecircumflex" unicode="&#xca;" horiz-adv-x="1372" 
d="M719 1702l-180 -152h-211l274 281h234l274 -281h-211zM459 223h809v-223h-1075v1434h1046v-224h-780v-372h692v-220h-692v-395z" />
    <glyph glyph-name="Edieresis" unicode="&#xcb;" horiz-adv-x="1372" 
d="M520 1573q-53 0 -88 34.5t-35 88.5q0 55 35 90t88 35t88 -35t35 -90q0 -54 -35 -88.5t-88 -34.5zM918 1573q-53 0 -88 34.5t-35 88.5q0 55 35 90t88 35t87.5 -35t34.5 -90q0 -54 -34.5 -88.5t-87.5 -34.5zM459 223h809v-223h-1075v1434h1046v-224h-780v-372h692v-220
h-692v-395z" />
    <glyph glyph-name="Igrave" unicode="&#xcc;" horiz-adv-x="653" 
d="M276 1550l-356 281h301l277 -281h-222zM193 0v1434h266v-1434h-266z" />
    <glyph glyph-name="Iacute" unicode="&#xcd;" horiz-adv-x="653" 
d="M154 1550l276 281h301l-356 -281h-221zM193 0v1434h266v-1434h-266z" />
    <glyph glyph-name="Icircumflex" unicode="&#xce;" horiz-adv-x="653" 
d="M442 1831l275 -281h-211l-180 152l-181 -152h-211l275 281h233zM193 0v1434h266v-1434h-266z" />
    <glyph glyph-name="Idieresis" unicode="&#xcf;" horiz-adv-x="653" 
d="M127 1573q-53 0 -88 34.5t-35 88.5q0 55 35 90t88 35t88 -35t35 -90q0 -54 -35 -88.5t-88 -34.5zM524 1573q-53 0 -88 34.5t-35 88.5q0 55 35 90t88 35t88 -35t35 -90q0 -54 -35 -88.5t-88 -34.5zM193 0v1434h266v-1434h-266z" />
    <glyph glyph-name="Eth" unicode="&#xd0;" horiz-adv-x="1712" 
d="M840 1434q230 0 408 -89t276 -252.5t98 -375.5t-98 -375.5t-276 -252.5t-408 -89h-627v631h-203v196h203v607h627zM827 225q239 0 383 134.5t144 357.5t-144 357t-383 134h-348v-381h383v-196h-383v-406h348z" />
    <glyph glyph-name="Ntilde" unicode="&#xd1;" horiz-adv-x="1658" 
d="M698 1686q-43 0 -70 -32.5t-30 -90.5h-137q3 126 63 200t158 74q46 0 90 -21t72.5 -46.5t60.5 -46.5t56 -21q43 0 70 31t30 86h137q-3 -121 -63 -195t-158 -74q-46 0 -90 21t-72.5 47t-60.5 47t-56 21zM1202 1434h264v-1434h-219l-790 971v-971h-264v1434h219l790 -971
v971z" />
    <glyph glyph-name="Ograve" unicode="&#xd2;" horiz-adv-x="1724" 
d="M813 1550l-356 281h301l276 -281h-221zM862 -20q-219 0 -395.5 95t-276.5 264t-100 378t100 378t276.5 264t395.5 95t395.5 -95t276.5 -263.5t100 -378.5t-100 -378.5t-276.5 -263.5t-395.5 -95zM862 213q217 0 360.5 142.5t143.5 361.5t-143.5 361.5t-360.5 142.5
t-360.5 -142.5t-143.5 -361.5t143.5 -361.5t360.5 -142.5z" />
    <glyph glyph-name="Oacute" unicode="&#xd3;" horiz-adv-x="1724" 
d="M690 1550l277 281h301l-357 -281h-221zM862 -20q-219 0 -395.5 95t-276.5 264t-100 378t100 378t276.5 264t395.5 95t395.5 -95t276.5 -263.5t100 -378.5t-100 -378.5t-276.5 -263.5t-395.5 -95zM862 213q217 0 360.5 142.5t143.5 361.5t-143.5 361.5t-360.5 142.5
t-360.5 -142.5t-143.5 -361.5t143.5 -361.5t360.5 -142.5z" />
    <glyph glyph-name="Ocircumflex" unicode="&#xd4;" horiz-adv-x="1724" 
d="M862 1702l-180 -152h-211l274 281h234l274 -281h-211zM862 1454q219 0 395.5 -95t276.5 -263.5t100 -378.5t-100 -378.5t-276.5 -263.5t-395.5 -95t-395.5 95t-276.5 264t-100 378t100 378t276.5 264t395.5 95zM862 213q217 0 360.5 142.5t143.5 361.5t-143.5 361.5
t-360.5 142.5t-360.5 -142.5t-143.5 -361.5t143.5 -361.5t360.5 -142.5z" />
    <glyph glyph-name="Otilde" unicode="&#xd5;" horiz-adv-x="1724" 
d="M1010 1550q-46 0 -90 21t-72.5 47t-60.5 47t-56 21q-43 0 -70 -32.5t-30 -90.5h-137q3 126 63 200t158 74q46 0 90 -21t72 -46.5t60 -46.5t56 -21q43 0 70.5 31t30.5 86h137q-3 -121 -63 -195t-158 -74zM862 -20q-219 0 -395.5 95t-276.5 264t-100 378t100 378t276.5 264
t395.5 95t395.5 -95t276.5 -263.5t100 -378.5t-100 -378.5t-276.5 -263.5t-395.5 -95zM862 213q217 0 360.5 142.5t143.5 361.5t-143.5 361.5t-360.5 142.5t-360.5 -142.5t-143.5 -361.5t143.5 -361.5t360.5 -142.5z" />
    <glyph glyph-name="Odieresis" unicode="&#xd6;" horiz-adv-x="1724" 
d="M664 1573q-53 0 -88 34.5t-35 88.5q0 55 35 90t88 35t87.5 -35t34.5 -90q0 -54 -34.5 -88.5t-87.5 -34.5zM1061 1573q-53 0 -88 34.5t-35 88.5q0 55 35 90t88 35t88 -35t35 -90q0 -54 -35 -88.5t-88 -34.5zM862 -20q-219 0 -395.5 95t-276.5 264t-100 378t100 378
t276.5 264t395.5 95t395.5 -95t276.5 -263.5t100 -378.5t-100 -378.5t-276.5 -263.5t-395.5 -95zM862 213q217 0 360.5 142.5t143.5 361.5t-143.5 361.5t-360.5 142.5t-360.5 -142.5t-143.5 -361.5t143.5 -361.5t360.5 -142.5z" />
    <glyph glyph-name="multiply" unicode="&#xd7;" horiz-adv-x="1208" 
d="M1010 979l-260 -262l260 -262l-142 -150l-264 266l-264 -266l-137 150l258 262l-258 262l137 149l264 -266l264 266z" />
    <glyph glyph-name="Oslash" unicode="&#xd8;" horiz-adv-x="1724" 
d="M1366 1288q127 -102 197.5 -249t70.5 -322q0 -210 -100 -378.5t-276.5 -263.5t-395.5 -95q-206 0 -370 83l-148 -206h-190l206 288q-128 101 -199 248.5t-71 323.5q0 209 100 378t276.5 264t395.5 95q200 0 373 -84l147 207h191zM358 717q0 -222 148 -367l586 819
q-107 52 -230 52q-217 0 -360.5 -142.5t-143.5 -361.5zM862 213q217 0 360.5 142.5t143.5 361.5q0 220 -147 364l-584 -819q107 -49 227 -49z" />
    <glyph glyph-name="Ugrave" unicode="&#xd9;" horiz-adv-x="1615" 
d="M762 1550l-356 281h301l276 -281h-221zM809 -20q-297 0 -463 167t-166 478v809h266v-799q0 -422 365 -422q363 0 363 422v799h262v-809q0 -311 -165.5 -478t-461.5 -167z" />
    <glyph glyph-name="Uacute" unicode="&#xda;" horiz-adv-x="1615" 
d="M639 1550l276 281h302l-357 -281h-221zM809 -20q-297 0 -463 167t-166 478v809h266v-799q0 -422 365 -422q363 0 363 422v799h262v-809q0 -311 -165.5 -478t-461.5 -167z" />
    <glyph glyph-name="Ucircumflex" unicode="&#xdb;" horiz-adv-x="1615" 
d="M811 1702l-180 -152h-211l274 281h234l274 -281h-211zM1174 1434h262v-809q0 -311 -165.5 -478t-461.5 -167q-297 0 -463 167t-166 478v809h266v-799q0 -422 365 -422q363 0 363 422v799z" />
    <glyph glyph-name="Udieresis" unicode="&#xdc;" horiz-adv-x="1615" 
d="M612 1573q-53 0 -88 34.5t-35 88.5q0 55 35 90t88 35t88 -35t35 -90q0 -54 -35 -88.5t-88 -34.5zM1010 1573q-53 0 -88 34.5t-35 88.5q0 55 35 90t88 35t88 -35t35 -90q0 -54 -35 -88.5t-88 -34.5zM809 -20q-297 0 -463 167t-166 478v809h266v-799q0 -422 365 -422
q363 0 363 422v799h262v-809q0 -311 -165.5 -478t-461.5 -167z" />
    <glyph glyph-name="Yacute" unicode="&#xdd;" horiz-adv-x="1353" 
d="M1083 1831l-356 -281h-221l276 281h301zM1372 1434l-561 -928v-506h-266v502l-563 932h284l420 -699l424 699h262z" />
    <glyph glyph-name="Thorn" unicode="&#xde;" horiz-adv-x="1486" 
d="M782 1266q283 0 447 -137t164 -373t-164 -373t-447 -137h-323v-246h-266v1434h266v-168h323zM770 471q173 0 263.5 74.5t90.5 210.5t-90.5 210t-263.5 74h-311v-569h311z" />
    <glyph glyph-name="germandbls" unicode="&#xdf;" horiz-adv-x="1400" 
d="M1034 799q134 -39 212.5 -138t78.5 -243q0 -201 -139.5 -316.5t-366.5 -115.5q-138 0 -239 32l34 211q77 -26 189 -26q123 0 193.5 58.5t70.5 164.5q0 104 -78.5 161.5t-212.5 57.5h-112v211q134 1 212 68.5t78 177.5q0 100 -65 157.5t-184 57.5q-133 0 -207 -74.5
t-74 -216.5v-1026h-256v1001q0 171 72 293.5t191.5 181t273.5 58.5q228 0 361.5 -118t133.5 -300q0 -101 -45 -182t-121 -135z" />
    <glyph glyph-name="agrave" unicode="&#xe0;" horiz-adv-x="1243" 
d="M780 1243h-221l-356 281h301zM586 1106q240 0 368.5 -116t128.5 -349v-641h-241v133q-95 -147 -344 -147q-185 0 -296.5 91.5t-111.5 235.5q0 71 25 128.5t77.5 102.5t142 70t210.5 25h282v16q0 114 -68.5 176t-203.5 62q-93 0 -182 -29t-150 -80l-100 187
q86 66 207 100.5t256 34.5zM551 172q97 0 171 43.5t105 126.5v127h-264q-221 0 -221 -145q0 -70 56 -111t153 -41z" />
    <glyph glyph-name="aacute" unicode="&#xe1;" horiz-adv-x="1243" 
d="M1014 1524l-357 -281h-221l277 281h301zM586 1106q240 0 368.5 -116t128.5 -349v-641h-241v133q-95 -147 -344 -147q-185 0 -296.5 91.5t-111.5 235.5q0 71 25 128.5t77.5 102.5t142 70t210.5 25h282v16q0 114 -68.5 176t-203.5 62q-93 0 -182 -29t-150 -80l-100 187
q86 66 207 100.5t256 34.5zM551 172q97 0 171 43.5t105 126.5v127h-264q-221 0 -221 -145q0 -70 56 -111t153 -41z" />
    <glyph glyph-name="acircumflex" unicode="&#xe2;" horiz-adv-x="1243" 
d="M608 1395l-180 -152h-211l275 281h233l274 -281h-211zM586 1106q240 0 368.5 -116t128.5 -349v-641h-241v133q-95 -147 -344 -147q-185 0 -296.5 91.5t-111.5 235.5q0 71 25 128.5t77.5 102.5t142 70t210.5 25h282v16q0 114 -68.5 176t-203.5 62q-93 0 -182 -29t-150 -80
l-100 187q86 66 207 100.5t256 34.5zM551 172q97 0 171 43.5t105 126.5v127h-264q-221 0 -221 -145q0 -70 56 -111t153 -41z" />
    <glyph glyph-name="atilde" unicode="&#xe3;" horiz-adv-x="1243" 
d="M477 1378q-43 0 -70 -32.5t-30 -90.5h-137q3 126 63 200.5t158 74.5q46 0 90 -21t72 -46.5t60 -46.5t56 -21q43 0 70.5 30.5t30.5 85.5h137q-3 -121 -63 -194.5t-158 -73.5q-46 0 -90 21t-72.5 46.5t-60.5 46.5t-56 21zM586 1106q240 0 368.5 -116t128.5 -349v-641h-241
v133q-95 -147 -344 -147q-185 0 -296.5 91.5t-111.5 235.5q0 71 25 128.5t77.5 102.5t142 70t210.5 25h282v16q0 114 -68.5 176t-203.5 62q-93 0 -182 -29t-150 -80l-100 187q86 66 207 100.5t256 34.5zM551 172q97 0 171 43.5t105 126.5v127h-264q-221 0 -221 -145
q0 -70 56 -111t153 -41z" />
    <glyph glyph-name="adieresis" unicode="&#xe4;" horiz-adv-x="1243" 
d="M410 1266q-53 0 -88 34.5t-35 88.5q0 55 35 89.5t88 34.5t87.5 -34.5t34.5 -89.5q0 -54 -34.5 -88.5t-87.5 -34.5zM807 1266q-53 0 -88 34.5t-35 88.5q0 55 35 89.5t88 34.5t88 -34.5t35 -89.5q0 -54 -35 -88.5t-88 -34.5zM586 1106q240 0 368.5 -116t128.5 -349v-641
h-241v133q-95 -147 -344 -147q-185 0 -296.5 91.5t-111.5 235.5q0 71 25 128.5t77.5 102.5t142 70t210.5 25h282v16q0 114 -68.5 176t-203.5 62q-93 0 -182 -29t-150 -80l-100 187q86 66 207 100.5t256 34.5zM551 172q97 0 171 43.5t105 126.5v127h-264q-221 0 -221 -145
q0 -70 56 -111t153 -41z" />
    <glyph glyph-name="aring" unicode="&#xe5;" horiz-adv-x="1243" 
d="M606 1214q-100 0 -168.5 68t-68.5 166q0 99 68.5 168.5t168.5 69.5q102 0 171 -69.5t69 -168.5q0 -98 -69 -166t-171 -68zM606 1581q-55 0 -92 -37.5t-37 -95.5q0 -56 36.5 -92.5t92.5 -36.5q57 0 94 36.5t37 92.5q0 57 -37.5 95t-93.5 38zM586 1106q240 0 368.5 -116
t128.5 -349v-641h-241v133q-95 -147 -344 -147q-185 0 -296.5 91.5t-111.5 235.5q0 71 25 128.5t77.5 102.5t142 70t210.5 25h282v16q0 114 -68.5 176t-203.5 62q-93 0 -182 -29t-150 -80l-100 187q86 66 207 100.5t256 34.5zM551 172q97 0 171 43.5t105 126.5v127h-264
q-221 0 -221 -145q0 -70 56 -111t153 -41z" />
    <glyph glyph-name="ae" unicode="&#xe6;" horiz-adv-x="2033" 
d="M1956 551q0 -47 -6 -82h-863q20 -122 115 -194t240 -72q175 0 297 119l139 -158q-155 -178 -442 -178q-313 0 -478 200q-124 -200 -426 -200q-205 0 -323.5 92.5t-118.5 245.5q0 139 110.5 226t344.5 87h282v18q0 114 -68.5 176t-201.5 62q-94 0 -183.5 -29t-150.5 -80
l-100 187q86 66 207.5 100.5t253.5 34.5q289 0 407 -168q73 79 179 123.5t229 44.5q157 0 284 -69.5t200 -197t73 -288.5zM1397 901q-114 0 -203.5 -69t-108.5 -195h619q-16 125 -104 194.5t-203 69.5zM555 172q127 0 199.5 65.5t72.5 174.5v57h-264q-221 0 -221 -141
q0 -73 56.5 -114.5t156.5 -41.5z" />
    <glyph glyph-name="ccedilla" unicode="&#xe7;" horiz-adv-x="1189" 
d="M668 205q176 0 272 151l197 -114q-61 -120 -179 -186.5t-272 -69.5l-22 -86q88 -10 133 -56.5t45 -115.5q0 -89 -76.5 -142t-202.5 -53q-112 0 -188 43l47 121q62 -33 139 -33q109 0 109 74q0 67 -109 67h-63l51 191q-212 35 -341.5 185.5t-129.5 365.5q0 246 166 402.5
t426 156.5q161 0 283 -65.5t184 -188.5l-197 -115q-96 152 -272 152q-144 0 -238 -93.5t-94 -248.5q0 -156 94 -249t238 -93z" />
    <glyph glyph-name="egrave" unicode="&#xe8;" horiz-adv-x="1273" 
d="M809 1243h-221l-357 281h301zM1196 541q0 -26 -4 -76h-858q23 -121 117.5 -191.5t236.5 -70.5q181 0 297 119l137 -158q-149 -178 -440 -178q-272 0 -438 157t-166 404q0 244 160 401.5t405 157.5q242 0 397.5 -155.5t155.5 -409.5zM643 901q-124 0 -208 -72.5
t-103 -193.5h620q-15 119 -99.5 192.5t-209.5 73.5z" />
    <glyph glyph-name="eacute" unicode="&#xe9;" horiz-adv-x="1273" 
d="M1042 1524l-356 -281h-221l276 281h301zM1196 541q0 -26 -4 -76h-858q23 -121 117.5 -191.5t236.5 -70.5q181 0 297 119l137 -158q-149 -178 -440 -178q-272 0 -438 157t-166 404q0 244 160 401.5t405 157.5q242 0 397.5 -155.5t155.5 -409.5zM643 901q-124 0 -208 -72.5
t-103 -193.5h620q-15 119 -99.5 192.5t-209.5 73.5z" />
    <glyph glyph-name="ecircumflex" unicode="&#xea;" horiz-adv-x="1273" 
d="M637 1395l-180 -152h-211l274 281h234l274 -281h-211zM1196 541q0 -26 -4 -76h-858q23 -121 117.5 -191.5t236.5 -70.5q181 0 297 119l137 -158q-149 -178 -440 -178q-272 0 -438 157t-166 404q0 244 160 401.5t405 157.5q242 0 397.5 -155.5t155.5 -409.5zM643 901
q-124 0 -208 -72.5t-103 -193.5h620q-15 119 -99.5 192.5t-209.5 73.5z" />
    <glyph glyph-name="edieresis" unicode="&#xeb;" horiz-adv-x="1273" 
d="M438 1266q-53 0 -88 34.5t-35 88.5q0 55 35 89.5t88 34.5t88 -34.5t35 -89.5q0 -54 -35 -88.5t-88 -34.5zM836 1266q-53 0 -88 34.5t-35 88.5q0 55 35 89.5t88 34.5t87.5 -34.5t34.5 -89.5q0 -54 -34.5 -88.5t-87.5 -34.5zM1196 541q0 -26 -4 -76h-858
q23 -121 117.5 -191.5t236.5 -70.5q181 0 297 119l137 -158q-149 -178 -440 -178q-272 0 -438 157t-166 404q0 244 160 401.5t405 157.5q242 0 397.5 -155.5t155.5 -409.5zM643 901q-124 0 -208 -72.5t-103 -193.5h620q-15 119 -99.5 192.5t-209.5 73.5z" />
    <glyph glyph-name="igrave" unicode="&#xec;" horiz-adv-x="591" 
d="M248 1243l-357 281h302l276 -281h-221zM168 0v1094h256v-1094h-256z" />
    <glyph glyph-name="iacute" unicode="&#xed;" horiz-adv-x="591" 
d="M125 1243l276 281h301l-356 -281h-221zM168 0v1094h256v-1094h-256z" />
    <glyph glyph-name="icircumflex" unicode="&#xee;" horiz-adv-x="591" 
d="M412 1524l225 -281h-201l-139 143l-139 -143h-201l225 281h230zM168 0v1094h256v-1094h-256z" />
    <glyph glyph-name="idieresis" unicode="&#xef;" horiz-adv-x="591" 
d="M141 1268q-52 0 -85 34t-33 87t33 87.5t85 34.5q50 0 83.5 -34.5t33.5 -87.5q0 -52 -33.5 -86.5t-83.5 -34.5zM455 1268q-51 0 -85 34.5t-34 86.5t34 87t85 35t83.5 -34t32.5 -88q0 -53 -32.5 -87t-83.5 -34zM168 0v1094h256v-1094h-256z" />
    <glyph glyph-name="eth" unicode="&#xf0;" horiz-adv-x="1327" 
d="M1081 1262q170 -207 170 -560q0 -337 -170.5 -529.5t-470.5 -192.5q-151 0 -271 56t-190.5 163t-70.5 247q0 137 69.5 243t187.5 162t265 56q259 0 389 -178v31q0 272 -139 411l-535 -210l-61 151l416 164q-73 20 -166 20q-157 0 -289 -47l-39 209q153 45 332 45
q258 0 440 -119l182 72l60 -151zM629 188q140 0 224.5 74t84.5 180q0 110 -85.5 183t-215.5 73q-138 0 -219.5 -69.5t-81.5 -186.5q0 -115 81 -184.5t212 -69.5z" />
    <glyph glyph-name="ntilde" unicode="&#xf1;" horiz-adv-x="1402" 
d="M575 1378q-43 0 -70 -32.5t-30 -90.5h-137q3 126 63 200.5t158 74.5q46 0 90 -21t72.5 -46.5t60.5 -46.5t56 -21q43 0 70 30.5t30 85.5h137q-3 -121 -63 -194.5t-158 -73.5q-46 0 -90 21t-72.5 46.5t-60.5 46.5t-56 21zM788 1106q100 0 182 -29t144 -86.5t96.5 -150
t34.5 -213.5v-627h-256v594q0 144 -67.5 216.5t-192.5 72.5q-140 0 -222.5 -85t-82.5 -245v-553h-256v1094h244v-142q129 154 376 154z" />
    <glyph glyph-name="ograve" unicode="&#xf2;" horiz-adv-x="1320" 
d="M608 1243l-356 281h301l276 -281h-221zM659 -14q-253 0 -417 158t-164 403t164 402t417 157q255 0 419.5 -156.5t164.5 -402.5t-164.5 -403.5t-419.5 -157.5zM659 205q142 0 234 94t92 248t-92 248t-234 94q-140 0 -231.5 -94t-91.5 -248t91.5 -248t231.5 -94z" />
    <glyph glyph-name="oacute" unicode="&#xf3;" horiz-adv-x="1320" 
d="M485 1243l277 281h301l-356 -281h-222zM659 -14q-253 0 -417 158t-164 403t164 402t417 157q255 0 419.5 -156.5t164.5 -402.5t-164.5 -403.5t-419.5 -157.5zM659 205q142 0 234 94t92 248t-92 248t-234 94q-140 0 -231.5 -94t-91.5 -248t91.5 -248t231.5 -94z" />
    <glyph glyph-name="ocircumflex" unicode="&#xf4;" horiz-adv-x="1320" 
d="M657 1395l-180 -152h-211l275 281h233l275 -281h-211zM659 1106q255 0 419.5 -156.5t164.5 -402.5t-164.5 -403.5t-419.5 -157.5q-253 0 -417 158t-164 403t164 402t417 157zM659 205q142 0 234 94t92 248t-92 248t-234 94q-140 0 -231.5 -94t-91.5 -248t91.5 -248
t231.5 -94z" />
    <glyph glyph-name="otilde" unicode="&#xf5;" horiz-adv-x="1320" 
d="M805 1243q-46 0 -90 21t-72.5 46.5t-60.5 46.5t-56 21q-43 0 -70 -32.5t-30 -90.5h-137q3 126 63 200.5t158 74.5q46 0 90 -21t72 -46.5t60 -46.5t56 -21q43 0 70.5 30.5t30.5 85.5h137q-3 -121 -63 -194.5t-158 -73.5zM659 -14q-253 0 -417 158t-164 403t164 402
t417 157q255 0 419.5 -156.5t164.5 -402.5t-164.5 -403.5t-419.5 -157.5zM659 205q142 0 234 94t92 248t-92 248t-234 94q-140 0 -231.5 -94t-91.5 -248t91.5 -248t231.5 -94z" />
    <glyph glyph-name="odieresis" unicode="&#xf6;" horiz-adv-x="1320" 
d="M459 1266q-53 0 -88 34.5t-35 88.5q0 55 35 89.5t88 34.5t88 -34.5t35 -89.5q0 -54 -35 -88.5t-88 -34.5zM856 1266q-53 0 -88 34.5t-35 88.5q0 55 35 89.5t88 34.5t88 -34.5t35 -89.5q0 -54 -35 -88.5t-88 -34.5zM659 -14q-253 0 -417 158t-164 403t164 402t417 157
q255 0 419.5 -156.5t164.5 -402.5t-164.5 -403.5t-419.5 -157.5zM659 205q142 0 234 94t92 248t-92 248t-234 94q-140 0 -231.5 -94t-91.5 -248t91.5 -248t231.5 -94z" />
    <glyph glyph-name="divide" unicode="&#xf7;" horiz-adv-x="1208" 
d="M604 985q-59 0 -100 42t-41 106q0 63 40.5 104t100.5 41q62 0 103 -40.5t41 -104.5t-41 -106t-103 -42zM133 614v205h944v-205h-944zM604 156q-59 0 -100 41.5t-41 105.5t41 105t100 41q62 0 103 -41t41 -105t-41 -105.5t-103 -41.5z" />
    <glyph glyph-name="oslash" unicode="&#xf8;" horiz-adv-x="1320" 
d="M1024 995q104 -76 161.5 -191.5t57.5 -256.5q0 -246 -164.5 -403.5t-419.5 -157.5q-142 0 -260 53l-120 -184h-144l160 243q-103 76 -160 192t-57 257q0 245 164 402t417 157q144 0 261 -51l116 176h144zM336 547q0 -151 90 -248l369 563q-61 27 -136 27
q-140 0 -231.5 -94t-91.5 -248zM659 205q142 0 234 94t92 248q0 153 -92 248l-369 -564q59 -26 135 -26z" />
    <glyph glyph-name="ugrave" unicode="&#xf9;" horiz-adv-x="1394" 
d="M864 1243h-221l-356 281h301zM971 1094h256v-1094h-244v139q-61 -74 -153 -113.5t-199 -39.5q-218 0 -344.5 121.5t-126.5 361.5v625h256v-590q0 -147 66 -220t190 -73q137 0 218 85t81 245v553z" />
    <glyph glyph-name="uacute" unicode="&#xfa;" horiz-adv-x="1394" 
d="M1098 1524l-357 -281h-221l277 281h301zM971 1094h256v-1094h-244v139q-61 -74 -153 -113.5t-199 -39.5q-218 0 -344.5 121.5t-126.5 361.5v625h256v-590q0 -147 66 -220t190 -73q137 0 218 85t81 245v553z" />
    <glyph glyph-name="ucircumflex" unicode="&#xfb;" horiz-adv-x="1394" 
d="M692 1395l-180 -152h-211l274 281h234l274 -281h-211zM971 1094h256v-1094h-244v139q-61 -74 -153 -113.5t-199 -39.5q-218 0 -344.5 121.5t-126.5 361.5v625h256v-590q0 -147 66 -220t190 -73q137 0 218 85t81 245v553z" />
    <glyph glyph-name="udieresis" unicode="&#xfc;" horiz-adv-x="1394" 
d="M494 1266q-53 0 -88 34.5t-35 88.5q0 55 35 89.5t88 34.5t87.5 -34.5t34.5 -89.5q0 -54 -34.5 -88.5t-87.5 -34.5zM891 1266q-53 0 -88 34.5t-35 88.5q0 55 35 89.5t88 34.5t88 -34.5t35 -89.5q0 -54 -35 -88.5t-88 -34.5zM971 1094h256v-1094h-244v139
q-61 -74 -153 -113.5t-199 -39.5q-218 0 -344.5 121.5t-126.5 361.5v625h256v-590q0 -147 66 -220t190 -73q137 0 218 85t81 245v553z" />
    <glyph glyph-name="yacute" unicode="&#xfd;" horiz-adv-x="1183" 
d="M971 1524l-357 -281h-221l277 281h301zM946 1094h246l-512 -1182q-72 -178 -174.5 -251t-247.5 -73q-82 0 -161.5 27t-131.5 74l103 188q79 -76 188 -76q67 0 111.5 35t81.5 117l18 43l-477 1098h266l344 -809z" />
    <glyph glyph-name="thorn" unicode="&#xfe;" horiz-adv-x="1404" 
d="M774 1106q159 0 285 -68.5t198 -196.5t72 -294q0 -252 -156.5 -406.5t-398.5 -154.5q-221 0 -350 147v-530h-256v1917h256v-555q129 141 350 141zM745 205q141 0 232.5 94t91.5 248t-91.5 248t-232.5 94t-233 -94t-92 -248t92 -248t233 -94z" />
    <glyph glyph-name="ydieresis" unicode="&#xff;" horiz-adv-x="1183" 
d="M367 1266q-53 0 -88 34.5t-35 88.5q0 55 35 89.5t88 34.5t87.5 -34.5t34.5 -89.5q0 -54 -34.5 -88.5t-87.5 -34.5zM764 1266q-53 0 -88 34.5t-35 88.5q0 55 35 89.5t88 34.5t88 -34.5t35 -89.5q0 -54 -35 -88.5t-88 -34.5zM946 1094h246l-512 -1182q-72 -178 -174.5 -251
t-247.5 -73q-82 0 -161.5 27t-131.5 74l103 188q79 -76 188 -76q67 0 111.5 35t81.5 117l18 43l-477 1098h266l344 -809z" />
    <glyph glyph-name="Amacron" unicode="&#x100;" horiz-adv-x="1533" 
d="M1120 1767v-153h-708v153h708zM1266 0l-144 332h-716l-142 -332h-274l645 1434h262l647 -1434h-278zM496 541h538l-270 626z" />
    <glyph glyph-name="amacron" unicode="&#x101;" horiz-adv-x="1243" 
d="M963 1460v-153h-709v153h709zM586 1106q240 0 368.5 -116t128.5 -349v-641h-241v133q-95 -147 -344 -147q-185 0 -296.5 91.5t-111.5 235.5q0 71 25 128.5t77.5 102.5t142 70t210.5 25h282v16q0 114 -68.5 176t-203.5 62q-93 0 -182 -29t-150 -80l-100 187
q86 66 207 100.5t256 34.5zM551 172q97 0 171 43.5t105 126.5v127h-264q-221 0 -221 -145q0 -70 56 -111t153 -41z" />
    <glyph glyph-name="Abreve" unicode="&#x102;" horiz-adv-x="1533" 
d="M766 1536q-150 0 -249 80.5t-105 214.5h168q3 -69 55.5 -111.5t130.5 -42.5t130.5 42.5t55.5 111.5h168q-6 -134 -105 -214.5t-249 -80.5zM1266 0l-144 332h-716l-142 -332h-274l645 1434h262l647 -1434h-278zM496 541h538l-270 626z" />
    <glyph glyph-name="abreve" unicode="&#x103;" horiz-adv-x="1243" 
d="M608 1229q-150 0 -249 80.5t-105 214.5h168q3 -69 55.5 -111.5t130.5 -42.5t131 42.5t56 111.5h168q-6 -134 -105.5 -214.5t-249.5 -80.5zM586 1106q240 0 368.5 -116t128.5 -349v-641h-241v133q-95 -147 -344 -147q-185 0 -296.5 91.5t-111.5 235.5q0 71 25 128.5
t77.5 102.5t142 70t210.5 25h282v16q0 114 -68.5 176t-203.5 62q-93 0 -182 -29t-150 -80l-100 187q86 66 207 100.5t256 34.5zM551 172q97 0 171 43.5t105 126.5v127h-264q-221 0 -221 -145q0 -70 56 -111t153 -41z" />
    <glyph glyph-name="Aogonek" unicode="&#x104;" horiz-adv-x="1533" 
d="M1548 -295l43 -125q-83 -47 -194 -47q-124 0 -195.5 60.5t-71.5 158.5q0 143 154 248h-18l-144 332h-716l-142 -332h-274l645 1434h262l647 -1434q-128 -57 -184.5 -111.5t-56.5 -115.5q0 -47 32.5 -74t87.5 -27q71 0 125 33zM496 541h538l-270 626z" />
    <glyph glyph-name="aogonek" unicode="&#x105;" horiz-adv-x="1243" 
d="M1087 -295l43 -125q-83 -47 -194 -47q-124 0 -195 60.5t-71 158.5q0 152 172 260v121q-95 -147 -344 -147q-185 0 -296.5 91.5t-111.5 235.5q0 71 25 128.5t77.5 102.5t142 70t210.5 25h282v16q0 114 -68.5 176t-203.5 62q-93 0 -182 -29t-150 -80l-100 187
q86 66 207 100.5t256 34.5q240 0 368.5 -116t128.5 -349v-641q-128 -57 -184.5 -111.5t-56.5 -115.5q0 -47 33 -74t88 -27q70 0 124 33zM551 172q97 0 171 43.5t105 126.5v127h-264q-221 0 -221 -145q0 -70 56 -111t153 -41z" />
    <glyph glyph-name="Cacute" unicode="&#x106;" horiz-adv-x="1488" 
d="M674 1550l276 281h301l-356 -281h-221zM856 -20q-217 0 -392 94.5t-274.5 263t-99.5 379.5t99.5 379.5t275 263t393.5 94.5q175 0 321.5 -61.5t245.5 -178.5l-172 -161q-155 168 -383 168q-223 0 -367.5 -141.5t-144.5 -362.5t144.5 -362.5t367.5 -141.5q229 0 383 170
l172 -164q-100 -117 -246 -178t-323 -61z" />
    <glyph glyph-name="cacute" unicode="&#x107;" horiz-adv-x="1189" 
d="M457 1243l276 281h301l-356 -281h-221zM670 -14q-260 0 -426 157.5t-166 403.5t166 402.5t426 156.5q161 0 283 -65.5t184 -188.5l-197 -115q-96 152 -272 152q-144 0 -238 -93.5t-94 -248.5q0 -156 94 -249t238 -93q176 0 272 151l197 -114q-63 -123 -185 -189.5
t-282 -66.5z" />
    <glyph glyph-name="Ccircumflex" unicode="&#x108;" horiz-adv-x="1488" 
d="M846 1702l-180 -152h-211l274 281h234l274 -281h-211zM870 213q229 0 383 170l172 -164q-100 -117 -246 -178t-323 -61q-217 0 -392 94.5t-274.5 263t-99.5 379.5t99.5 379.5t275 263t393.5 94.5q175 0 321.5 -61.5t245.5 -178.5l-172 -161q-155 168 -383 168
q-223 0 -367.5 -141.5t-144.5 -362.5t144.5 -362.5t367.5 -141.5z" />
    <glyph glyph-name="ccircumflex" unicode="&#x109;" horiz-adv-x="1189" 
d="M629 1395l-180 -152h-211l274 281h233l275 -281h-211zM668 205q176 0 272 151l197 -114q-63 -123 -185 -189.5t-282 -66.5q-260 0 -426 157.5t-166 403.5t166 402.5t426 156.5q161 0 283 -65.5t184 -188.5l-197 -115q-96 152 -272 152q-144 0 -238 -93.5t-94 -248.5
q0 -156 94 -249t238 -93z" />
    <glyph glyph-name="Cdotaccent" unicode="&#x10a;" horiz-adv-x="1488" 
d="M846 1575q-63 0 -104.5 41t-41.5 104t41.5 104.5t104.5 41.5t104 -41.5t41 -104.5t-41 -104t-104 -41zM856 -20q-217 0 -392 94.5t-274.5 263t-99.5 379.5t99.5 379.5t275 263t393.5 94.5q175 0 321.5 -61.5t245.5 -178.5l-172 -161q-155 168 -383 168
q-223 0 -367.5 -141.5t-144.5 -362.5t144.5 -362.5t367.5 -141.5q229 0 383 170l172 -164q-100 -117 -246 -178t-323 -61z" />
    <glyph glyph-name="cdotaccent" unicode="&#x10b;" horiz-adv-x="1189" 
d="M629 1268q-63 0 -104.5 41t-41.5 104t41.5 104.5t104.5 41.5t104 -41.5t41 -104.5t-41 -104t-104 -41zM670 -14q-260 0 -426 157.5t-166 403.5t166 402.5t426 156.5q161 0 283 -65.5t184 -188.5l-197 -115q-96 152 -272 152q-144 0 -238 -93.5t-94 -248.5q0 -156 94 -249
t238 -93q176 0 272 151l197 -114q-63 -123 -185 -189.5t-282 -66.5z" />
    <glyph glyph-name="Ccaron" unicode="&#x10c;" horiz-adv-x="1488" 
d="M963 1550h-234l-274 281h211l180 -152l180 152h211zM870 213q229 0 383 170l172 -164q-100 -117 -246 -178t-323 -61q-217 0 -392 94.5t-274.5 263t-99.5 379.5t99.5 379.5t275 263t393.5 94.5q175 0 321.5 -61.5t245.5 -178.5l-172 -161q-155 168 -383 168
q-223 0 -367.5 -141.5t-144.5 -362.5t144.5 -362.5t367.5 -141.5z" />
    <glyph glyph-name="ccaron" unicode="&#x10d;" horiz-adv-x="1189" 
d="M745 1243h-233l-274 281h211l180 -152l180 152h211zM668 205q176 0 272 151l197 -114q-63 -123 -185 -189.5t-282 -66.5q-260 0 -426 157.5t-166 403.5t166 402.5t426 156.5q161 0 283 -65.5t184 -188.5l-197 -115q-96 152 -272 152q-144 0 -238 -93.5t-94 -248.5
q0 -156 94 -249t238 -93z" />
    <glyph glyph-name="Dcaron" unicode="&#x10e;" horiz-adv-x="1691" 
d="M885 1548h-234l-274 281h211l180 -152l180 152h211zM819 1434q230 0 408 -89t276.5 -252.5t98.5 -375.5t-98.5 -375.5t-276.5 -252.5t-408 -89h-626v1434h626zM807 225q239 0 382.5 134.5t143.5 357.5t-143.5 357t-382.5 134h-348v-983h348z" />
    <glyph glyph-name="dcaron" unicode="&#x10f;" horiz-adv-x="1406" 
d="M1415 1595h203l-33 -403h-170v403zM983 958v562h256v-1520h-246v141q-128 -155 -362 -155q-158 0 -283.5 68.5t-197.5 197t-72 295.5t72 295t197.5 196t283.5 68q225 0 352 -148zM662 205q141 0 233 94t92 248t-92 248t-233 94t-233.5 -94t-92.5 -248t92.5 -248
t233.5 -94z" />
    <glyph glyph-name="Dcroat" unicode="&#x110;" horiz-adv-x="1712" 
d="M840 1434q230 0 408 -89t276 -252.5t98 -375.5t-98 -375.5t-276 -252.5t-408 -89h-627v631h-203v196h203v607h627zM827 225q239 0 383 134.5t144 357.5t-144 357t-383 134h-348v-381h383v-196h-383v-406h348z" />
    <glyph glyph-name="dcroat" unicode="&#x111;" horiz-adv-x="1406" 
d="M1407 1389v-168h-168v-1221h-246v141q-128 -155 -362 -155q-158 0 -283.5 68.5t-197.5 197t-72 295.5t72 295t197.5 196t283.5 68q225 0 352 -148v263h-403v168h403v131h256v-131h168zM662 205q141 0 233 94t92 248t-92 248t-233 94t-233.5 -94t-92.5 -248t92.5 -248
t233.5 -94z" />
    <glyph glyph-name="Emacron" unicode="&#x112;" horiz-adv-x="1372" 
d="M1073 1767v-153h-708v153h708zM459 223h809v-223h-1075v1434h1046v-224h-780v-372h692v-220h-692v-395z" />
    <glyph glyph-name="emacron" unicode="&#x113;" horiz-adv-x="1273" 
d="M991 1460v-153h-708v153h708zM1196 541q0 -26 -4 -76h-858q23 -121 117.5 -191.5t236.5 -70.5q181 0 297 119l137 -158q-149 -178 -440 -178q-272 0 -438 157t-166 404q0 244 160 401.5t405 157.5q242 0 397.5 -155.5t155.5 -409.5zM643 901q-124 0 -208 -72.5
t-103 -193.5h620q-15 119 -99.5 192.5t-209.5 73.5z" />
    <glyph glyph-name="Ebreve" unicode="&#x114;" horiz-adv-x="1372" 
d="M719 1536q-150 0 -249 80.5t-105 214.5h167q3 -69 56 -111.5t131 -42.5t130.5 42.5t55.5 111.5h168q-6 -134 -105 -214.5t-249 -80.5zM459 223h809v-223h-1075v1434h1046v-224h-780v-372h692v-220h-692v-395z" />
    <glyph glyph-name="ebreve" unicode="&#x115;" horiz-adv-x="1273" 
d="M637 1229q-150 0 -249 80.5t-105 214.5h168q3 -69 55.5 -111.5t130.5 -42.5t130.5 42.5t55.5 111.5h168q-6 -134 -105 -214.5t-249 -80.5zM1196 541q0 -26 -4 -76h-858q23 -121 117.5 -191.5t236.5 -70.5q181 0 297 119l137 -158q-149 -178 -440 -178q-272 0 -438 157
t-166 404q0 244 160 401.5t405 157.5q242 0 397.5 -155.5t155.5 -409.5zM643 901q-124 0 -208 -72.5t-103 -193.5h620q-15 119 -99.5 192.5t-209.5 73.5z" />
    <glyph glyph-name="Edotaccent" unicode="&#x116;" horiz-adv-x="1372" 
d="M719 1575q-63 0 -104.5 41t-41.5 104t41.5 104.5t104.5 41.5t104 -41.5t41 -104.5t-41 -104t-104 -41zM459 223h809v-223h-1075v1434h1046v-224h-780v-372h692v-220h-692v-395z" />
    <glyph glyph-name="edotaccent" unicode="&#x117;" horiz-adv-x="1273" 
d="M637 1268q-63 0 -104 41t-41 104t41 104.5t104 41.5t104 -41.5t41 -104.5t-41 -104t-104 -41zM1196 541q0 -26 -4 -76h-858q23 -121 117.5 -191.5t236.5 -70.5q181 0 297 119l137 -158q-149 -178 -440 -178q-272 0 -438 157t-166 404q0 244 160 401.5t405 157.5
q242 0 397.5 -155.5t155.5 -409.5zM643 901q-124 0 -208 -72.5t-103 -193.5h620q-15 119 -99.5 192.5t-209.5 73.5z" />
    <glyph glyph-name="Eogonek" unicode="&#x118;" horiz-adv-x="1372" 
d="M1272 -295l43 -125q-83 -47 -195 -47q-124 0 -195 60.5t-71 158.5q0 143 154 248h-815v1434h1046v-224h-780v-372h692v-220h-692v-395h809v-223q-128 -58 -185 -112t-57 -115q0 -47 33 -74t88 -27q71 0 125 33z" />
    <glyph glyph-name="eogonek" unicode="&#x119;" horiz-adv-x="1273" 
d="M1196 541q0 -26 -4 -76h-858q23 -121 117.5 -191.5t236.5 -70.5q181 0 297 119l137 -158q-34 -40 -80 -74q-127 -100 -178 -173t-51 -136q0 -53 33 -81t88 -28q71 0 125 33l43 -125q-83 -47 -197 -47q-122 0 -193 62t-71 165q0 126 96 228q-18 -2 -55 -2q-272 0 -438 157
t-166 404q0 244 160 401.5t405 157.5q242 0 397.5 -155.5t155.5 -409.5zM643 901q-124 0 -208 -72.5t-103 -193.5h620q-15 119 -99.5 192.5t-209.5 73.5z" />
    <glyph glyph-name="Ecaron" unicode="&#x11a;" horiz-adv-x="1372" 
d="M836 1550h-234l-274 281h211l180 -152l180 152h211zM459 223h809v-223h-1075v1434h1046v-224h-780v-372h692v-220h-692v-395z" />
    <glyph glyph-name="ecaron" unicode="&#x11b;" horiz-adv-x="1273" 
d="M754 1243h-234l-274 281h211l180 -152l180 152h211zM1196 541q0 -26 -4 -76h-858q23 -121 117.5 -191.5t236.5 -70.5q181 0 297 119l137 -158q-149 -178 -440 -178q-272 0 -438 157t-166 404q0 244 160 401.5t405 157.5q242 0 397.5 -155.5t155.5 -409.5zM643 901
q-124 0 -208 -72.5t-103 -193.5h620q-15 119 -99.5 192.5t-209.5 73.5z" />
    <glyph glyph-name="Gcircumflex" unicode="&#x11c;" horiz-adv-x="1581" 
d="M848 1702l-180 -152h-211l274 281h234l274 -281h-211zM1171 287v446h252v-571q-110 -89 -257.5 -135.5t-303.5 -46.5q-219 0 -395.5 94.5t-276.5 263t-100 379.5t100 379.5t277 263t399 94.5q181 0 328 -59t248 -174l-168 -164q-164 164 -395 164q-229 0 -375 -141
t-146 -363q0 -219 146 -361.5t373 -142.5q166 0 294 74z" />
    <glyph glyph-name="gcircumflex" unicode="&#x11d;" horiz-adv-x="1421" 
d="M686 1395l-180 -152h-211l274 281h234l274 -281h-211zM1010 1094h243v-928q0 -578 -589 -578q-157 0 -299 40.5t-234 115.5l115 193q72 -60 181 -96t222 -36q180 0 264 82t84 250v58q-134 -146 -366 -146q-156 0 -281.5 66t-198.5 188t-73 277q0 234 157.5 380t395.5 146
q249 0 379 -158v146zM670 266q145 0 238 87.5t93 226.5q0 137 -93 223t-238 86q-147 0 -240.5 -86t-93.5 -223q0 -139 93.5 -226.5t240.5 -87.5z" />
    <glyph glyph-name="Gbreve" unicode="&#x11e;" horiz-adv-x="1581" 
d="M848 1536q-150 0 -249 80.5t-105 214.5h168q3 -69 55.5 -111.5t130.5 -42.5t130.5 42.5t55.5 111.5h168q-6 -134 -105 -214.5t-249 -80.5zM1171 287v446h252v-571q-110 -89 -257.5 -135.5t-303.5 -46.5q-219 0 -395.5 94.5t-276.5 263t-100 379.5t100 379.5t277 263
t399 94.5q181 0 328 -59t248 -174l-168 -164q-164 164 -395 164q-229 0 -375 -141t-146 -363q0 -219 146 -361.5t373 -142.5q166 0 294 74z" />
    <glyph glyph-name="gbreve" unicode="&#x11f;" horiz-adv-x="1421" 
d="M686 1229q-150 0 -249 80.5t-105 214.5h168q3 -69 55.5 -111.5t130.5 -42.5t130.5 42.5t55.5 111.5h168q-6 -134 -105 -214.5t-249 -80.5zM1010 1094h243v-928q0 -578 -589 -578q-157 0 -299 40.5t-234 115.5l115 193q72 -60 181 -96t222 -36q180 0 264 82t84 250v58
q-134 -146 -366 -146q-156 0 -281.5 66t-198.5 188t-73 277q0 234 157.5 380t395.5 146q249 0 379 -158v146zM670 266q145 0 238 87.5t93 226.5q0 137 -93 223t-238 86q-147 0 -240.5 -86t-93.5 -223q0 -139 93.5 -226.5t240.5 -87.5z" />
    <glyph glyph-name="Gdotaccent" unicode="&#x120;" horiz-adv-x="1581" 
d="M848 1575q-63 0 -104.5 41t-41.5 104t41.5 104.5t104.5 41.5t104 -41.5t41 -104.5t-41 -104t-104 -41zM1171 287v446h252v-571q-110 -89 -257.5 -135.5t-303.5 -46.5q-219 0 -395.5 94.5t-276.5 263t-100 379.5t100 379.5t277 263t399 94.5q181 0 328 -59t248 -174
l-168 -164q-164 164 -395 164q-229 0 -375 -141t-146 -363q0 -219 146 -361.5t373 -142.5q166 0 294 74z" />
    <glyph glyph-name="gdotaccent" unicode="&#x121;" horiz-adv-x="1421" 
d="M686 1268q-63 0 -104 41t-41 104t41 104.5t104 41.5t104 -41.5t41 -104.5t-41 -104t-104 -41zM1010 1094h243v-928q0 -578 -589 -578q-157 0 -299 40.5t-234 115.5l115 193q72 -60 181 -96t222 -36q180 0 264 82t84 250v58q-134 -146 -366 -146q-156 0 -281.5 66
t-198.5 188t-73 277q0 234 157.5 380t395.5 146q249 0 379 -158v146zM670 266q145 0 238 87.5t93 226.5q0 137 -93 223t-238 86q-147 0 -240.5 -86t-93.5 -223q0 -139 93.5 -226.5t240.5 -87.5z" />
    <glyph glyph-name="Gcommaaccent" unicode="&#x122;" horiz-adv-x="1581" 
d="M1171 287v446h252v-571q-110 -89 -257.5 -135.5t-303.5 -46.5q-219 0 -395.5 94.5t-276.5 263t-100 379.5t100 379.5t277 263t399 94.5q181 0 328 -59t248 -174l-168 -164q-164 164 -395 164q-229 0 -375 -141t-146 -363q0 -219 146 -361.5t373 -142.5q166 0 294 74z
M831 -170q56 0 89.5 -31t33.5 -78q0 -60 -32 -120l-66 -144h-125l49 166q-71 21 -71 98q0 48 33 78.5t89 30.5z" />
    <glyph glyph-name="gcommaaccent" unicode="&#x123;" horiz-adv-x="1421" 
d="M686 1229q-65 0 -101 30t-36 78q0 49 37 117l84 188h141l-66 -206q78 -21 78 -99q0 -49 -35.5 -78.5t-101.5 -29.5zM1010 1094h243v-928q0 -578 -589 -578q-157 0 -299 40.5t-234 115.5l115 193q72 -60 181 -96t222 -36q180 0 264 82t84 250v58q-134 -146 -366 -146
q-156 0 -281.5 66t-198.5 188t-73 277q0 234 157.5 380t395.5 146q249 0 379 -158v146zM670 266q145 0 238 87.5t93 226.5q0 137 -93 223t-238 86q-147 0 -240.5 -86t-93.5 -223q0 -139 93.5 -226.5t240.5 -87.5z" />
    <glyph glyph-name="Hcircumflex" unicode="&#x124;" horiz-adv-x="1658" 
d="M829 1702l-180 -152h-211l275 281h233l275 -281h-211zM1200 1434h266v-1434h-266v614h-741v-614h-266v1434h266v-592h741v592z" />
    <glyph glyph-name="hcircumflex" unicode="&#x125;" horiz-adv-x="1402" 
d="M477 1636l-180 152l-180 -152h-211l274 281h234l274 -281h-211zM788 1106q100 0 182 -29t144 -86.5t96.5 -150t34.5 -213.5v-627h-256v594q0 144 -67.5 216.5t-192.5 72.5q-140 0 -222.5 -85t-82.5 -245v-553h-256v1520h256v-553q130 139 364 139z" />
    <glyph glyph-name="Hbar" unicode="&#x126;" horiz-adv-x="1699" 
d="M1688 1243v-196h-201v-1047h-266v614h-742v-614h-266v1047h-203v196h203v191h266v-191h742v191h266v-191h201zM1221 842v205h-742v-205h742z" />
    <glyph glyph-name="hbar" unicode="&#x127;" horiz-adv-x="1402" 
d="M788 1106q100 0 182 -29t144 -86.5t96.5 -150t34.5 -213.5v-627h-256v594q0 144 -67.5 216.5t-192.5 72.5q-140 0 -222.5 -85t-82.5 -245v-553h-256v1221h-168v168h168v131h256v-131h403v-168h-403v-254q130 139 364 139z" />
    <glyph glyph-name="Itilde" unicode="&#x128;" horiz-adv-x="653" 
d="M473 1550q-46 0 -90 21t-72 47t-60 47t-56 21q-43 0 -70.5 -32.5t-30.5 -90.5h-137q3 126 63 200t158 74q46 0 90 -21t72.5 -46.5t60.5 -46.5t56 -21q43 0 70 31t30 86h137q-3 -121 -63 -195t-158 -74zM193 0v1434h266v-1434h-266z" />
    <glyph glyph-name="itilde" unicode="&#x129;" horiz-adv-x="591" 
d="M426 1243q-43 0 -83 21t-64 46.5t-50.5 46.5t-46.5 21q-65 0 -65 -123h-135q0 133 49 204t137 71q43 0 83 -21t64 -46.5t50.5 -46.5t46.5 -21q65 0 65 116h135q0 -128 -49 -198t-137 -70zM168 0v1094h256v-1094h-256z" />
    <glyph glyph-name="Imacron" unicode="&#x12a;" horiz-adv-x="653" 
d="M37 1614v153h577v-153h-577zM193 0v1434h266v-1434h-266z" />
    <glyph glyph-name="imacron" unicode="&#x12b;" horiz-adv-x="591" 
d="M8 1307v153h578v-153h-578zM168 0v1094h256v-1094h-256z" />
    <glyph glyph-name="Ibreve" unicode="&#x12c;" horiz-adv-x="653" 
d="M326 1536q-150 0 -249.5 80.5t-105.5 214.5h168q3 -69 56 -111.5t131 -42.5t130.5 42.5t55.5 111.5h168q-6 -134 -105 -214.5t-249 -80.5zM193 0v1434h266v-1434h-266z" />
    <glyph glyph-name="ibreve" unicode="&#x12d;" horiz-adv-x="591" 
d="M297 1229q-131 0 -216.5 80.5t-86.5 214.5h158q0 -71 39 -113.5t106 -42.5t106 42.5t39 113.5h158q-1 -134 -86.5 -214.5t-216.5 -80.5zM168 0v1094h256v-1094h-256z" />
    <glyph glyph-name="Iogonek" unicode="&#x12e;" horiz-adv-x="653" 
d="M489 -307l39 -119q-53 -41 -141 -41q-101 0 -163 58t-62 155q0 140 117 254h-86v1434h266v-1434q-127 -112 -127 -227q0 -45 26 -73t64 -28q32 0 67 21z" />
    <glyph glyph-name="iogonek" unicode="&#x12f;" horiz-adv-x="591" 
d="M297 1274q-70 0 -117 44t-47 109t47 109.5t117 44.5t117 -42t47 -105q0 -68 -46.5 -114t-117.5 -46zM455 -307l39 -119q-53 -41 -142 -41q-101 0 -163 58t-62 155q0 140 117 254h-76v1094h256v-1094q-127 -112 -127 -227q0 -45 26 -73t64 -28q33 0 68 21z" />
    <glyph glyph-name="Idotaccent" unicode="&#x130;" horiz-adv-x="653" 
d="M326 1575q-63 0 -104.5 41t-41.5 104t41.5 104.5t104.5 41.5t104 -41.5t41 -104.5t-41 -104t-104 -41zM193 0v1434h266v-1434h-266z" />
    <glyph glyph-name="dotlessi" unicode="&#x131;" horiz-adv-x="591" 
d="M168 0v1094h256v-1094h-256z" />
    <glyph glyph-name="IJ" unicode="&#x132;" horiz-adv-x="1478" 
d="M670 -20q-149 0 -282.5 40.5t-233.5 110.5l100 207q190 -127 416 -127q362 0 362 412v811h266v-797q0 -317 -169 -487t-459 -170zM180 645v789h266v-789h-266z" />
    <glyph glyph-name="ij" unicode="&#x133;" horiz-adv-x="1196" 
d="M297 1274q-70 0 -117 44t-47 109t47 109.5t117 44.5t117 -42t47 -105q0 -68 -46.5 -114t-117.5 -46zM899 1274q-70 0 -117 44t-47 109t47 109.5t117 44.5t117 -42t47 -105q0 -68 -46.5 -114t-117.5 -46zM168 0v1094h256v-1094h-256zM647 -412q-162 0 -246 64l74 190
q58 -43 150 -43q147 0 147 174v1121h256v-1114q0 -182 -100 -287t-281 -105z" />
    <glyph glyph-name="Jcircumflex" unicode="&#x134;" horiz-adv-x="1079" 
d="M512 1702l-180 -152h-211l274 281h234l274 -281h-211zM123 1210v224h776v-951q0 -252 -122.5 -377.5t-360.5 -125.5q-136 0 -253 53.5t-190 152.5l152 183q121 -164 285 -164q223 0 223 264v741h-510z" />
    <glyph glyph-name="jcircumflex" unicode="&#x135;" horiz-adv-x="604" 
d="M422 1524l225 -281h-201l-139 143l-139 -143h-201l226 281h229zM180 -27v1121h256v-1114q0 -182 -100 -287t-281 -105q-161 0 -245 64l73 190q58 -43 150 -43q147 0 147 174z" />
    <glyph glyph-name="Kcommaaccent" unicode="&#x136;" horiz-adv-x="1492" 
d="M864 793l639 -793h-311l-506 600l-227 -233v-367h-266v1434h266v-736l708 736h299zM772 -170q56 0 89.5 -31t33.5 -78q0 -58 -33 -120l-65 -144h-125l49 166q-72 21 -72 98q0 48 33.5 78.5t89.5 30.5z" />
    <glyph glyph-name="kcommaaccent" unicode="&#x137;" horiz-adv-x="1302" 
d="M805 635l500 -635h-312l-379 469l-190 -180v-289h-256v1520h256v-918l530 492h308zM645 -170q56 0 89.5 -31t33.5 -78q0 -58 -33 -120l-65 -144h-125l49 166q-72 21 -72 98q0 48 33.5 78.5t89.5 30.5z" />
    <glyph glyph-name="kgreenlandic" unicode="&#x138;" horiz-adv-x="1280" 
d="M993 0l-379 469l-190 -180v-289h-256v1094h256v-492l530 492h308l-457 -459l500 -635h-312z" />
    <glyph glyph-name="Lacute" unicode="&#x139;" horiz-adv-x="1226" 
d="M154 1550l276 281h301l-356 -281h-221zM193 0v1434h266v-1209h749v-225h-1015z" />
    <glyph glyph-name="lacute" unicode="&#x13a;" horiz-adv-x="591" 
d="M125 1669l276 281h301l-356 -281h-221zM168 0v1520h256v-1520h-256z" />
    <glyph glyph-name="Lcommaaccent" unicode="&#x13b;" horiz-adv-x="1226" 
d="M459 225h749v-225h-1015v1434h266v-1209zM725 -170q56 0 89.5 -31t33.5 -78q0 -58 -33 -120l-65 -144h-125l49 166q-72 21 -72 98q0 48 33.5 78.5t89.5 30.5z" />
    <glyph glyph-name="lcommaaccent" unicode="&#x13c;" horiz-adv-x="591" 
d="M168 1520h256v-1520h-256v1520zM297 -170q56 0 89.5 -31t33.5 -78q0 -58 -33 -120l-65 -144h-125l49 166q-72 21 -72 98q0 48 33.5 78.5t89.5 30.5z" />
    <glyph glyph-name="Lcaron" unicode="&#x13d;" horiz-adv-x="1226" 
d="M889 1106v403h203l-33 -403h-170zM193 0v1434h266v-1209h749v-225h-1015z" />
    <glyph glyph-name="lcaron" unicode="&#x13e;" horiz-adv-x="591" 
d="M596 1192v403h203l-33 -403h-170zM168 0v1520h256v-1520h-256z" />
    <glyph glyph-name="Ldot" unicode="&#x13f;" horiz-adv-x="1226" 
d="M193 0v1434h266v-1209h749v-225h-1015zM940 674q-64 0 -106.5 43t-42.5 110q0 66 43 110t106 44t105 -44t42 -110q0 -67 -42 -110t-105 -43z" />
    <glyph glyph-name="ldot" unicode="&#x140;" horiz-adv-x="780" 
d="M168 0v1520h256v-1520h-256zM686 598q-60 0 -99.5 40t-39.5 99t39.5 99.5t99.5 40.5q61 0 101 -40.5t40 -99.5t-40 -99t-101 -40z" />
    <glyph glyph-name="Lslash" unicode="&#x141;" horiz-adv-x="1247" 
d="M479 225h750v-225h-1016v567l-113 -86l-108 142l221 168v643h266v-443l219 166l109 -139l-328 -250v-543z" />
    <glyph glyph-name="lslash" unicode="&#x142;" horiz-adv-x="632" 
d="M670 893l-226 -170v-723h-256v528l-118 -90l-107 144l225 170v768h256v-574l121 92z" />
    <glyph glyph-name="Nacute" unicode="&#x143;" horiz-adv-x="1658" 
d="M1235 1831l-356 -281h-222l277 281h301zM1202 1434h264v-1434h-219l-790 971v-971h-264v1434h219l790 -971v971z" />
    <glyph glyph-name="nacute" unicode="&#x144;" horiz-adv-x="1402" 
d="M1112 1524l-356 -281h-221l276 281h301zM788 1106q100 0 182 -29t144 -86.5t96.5 -150t34.5 -213.5v-627h-256v594q0 144 -67.5 216.5t-192.5 72.5q-140 0 -222.5 -85t-82.5 -245v-553h-256v1094h244v-142q129 154 376 154z" />
    <glyph glyph-name="Ncommaaccent" unicode="&#x145;" horiz-adv-x="1658" 
d="M1202 1434h264v-1434h-219l-790 971v-971h-264v1434h219l790 -971v971zM829 -170q56 0 89.5 -31t33.5 -78q0 -60 -32 -120l-66 -144h-125l49 166q-71 21 -71 98q0 48 33 78.5t89 30.5z" />
    <glyph glyph-name="ncommaaccent" unicode="&#x146;" horiz-adv-x="1402" 
d="M788 1106q100 0 182 -29t144 -86.5t96.5 -150t34.5 -213.5v-627h-256v594q0 144 -67.5 216.5t-192.5 72.5q-140 0 -222.5 -85t-82.5 -245v-553h-256v1094h244v-142q129 154 376 154zM707 -170q56 0 89 -31t33 -78q0 -60 -32 -120l-66 -144h-125l49 166q-71 21 -71 98
q0 48 33.5 78.5t89.5 30.5z" />
    <glyph glyph-name="Ncaron" unicode="&#x147;" horiz-adv-x="1658" 
d="M946 1550h-233l-275 281h211l180 -152l181 152h211zM1202 1434h264v-1434h-219l-790 971v-971h-264v1434h219l790 -971v971z" />
    <glyph glyph-name="ncaron" unicode="&#x148;" horiz-adv-x="1402" 
d="M823 1243h-233l-275 281h211l181 -152l180 152h211zM788 1106q100 0 182 -29t144 -86.5t96.5 -150t34.5 -213.5v-627h-256v594q0 144 -67.5 216.5t-192.5 72.5q-140 0 -222.5 -85t-82.5 -245v-553h-256v1094h244v-142q129 154 376 154z" />
    <glyph glyph-name="napostrophe" unicode="&#x149;" horiz-adv-x="1628" 
d="M96 899l6 535h170l-39 -535h-137zM1012 1106q206 0 331 -120.5t125 -358.5v-627h-256v594q0 144 -67.5 216.5t-192.5 72.5q-140 0 -222.5 -85t-82.5 -245v-553h-256v1094h244v-142q63 75 160 114.5t217 39.5z" />
    <glyph glyph-name="Eng" unicode="&#x14a;" horiz-adv-x="1658" 
d="M1202 1434h264v-1317q0 -269 -120 -399t-357 -130q-111 0 -208 38t-167 110l127 190q95 -112 242 -112q210 0 219 241l-745 916v-971h-264v1434h219l790 -971v971z" />
    <glyph glyph-name="eng" unicode="&#x14b;" horiz-adv-x="1402" 
d="M788 1106q100 0 182 -29t144 -86.5t96.5 -150t34.5 -213.5v-647q0 -182 -99.5 -287t-281.5 -105q-162 0 -246 64l76 190q55 -43 148 -43q147 0 147 174v621q0 144 -67.5 216.5t-192.5 72.5q-140 0 -222.5 -85t-82.5 -245v-553h-256v1094h244v-142q129 154 376 154z" />
    <glyph glyph-name="Omacron" unicode="&#x14c;" horiz-adv-x="1724" 
d="M508 1614v153h709v-153h-709zM862 -20q-219 0 -395.5 95t-276.5 264t-100 378t100 378t276.5 264t395.5 95t395.5 -95t276.5 -263.5t100 -378.5t-100 -378.5t-276.5 -263.5t-395.5 -95zM862 213q217 0 360.5 142.5t143.5 361.5t-143.5 361.5t-360.5 142.5t-360.5 -142.5
t-143.5 -361.5t143.5 -361.5t360.5 -142.5z" />
    <glyph glyph-name="omacron" unicode="&#x14d;" horiz-adv-x="1320" 
d="M303 1307v153h709v-153h-709zM659 -14q-253 0 -417 158t-164 403t164 402t417 157q255 0 419.5 -156.5t164.5 -402.5t-164.5 -403.5t-419.5 -157.5zM659 205q142 0 234 94t92 248t-92 248t-234 94q-140 0 -231.5 -94t-91.5 -248t91.5 -248t231.5 -94z" />
    <glyph glyph-name="Obreve" unicode="&#x14e;" horiz-adv-x="1724" 
d="M862 1536q-150 0 -249 80.5t-105 214.5h168q3 -69 55.5 -111.5t130.5 -42.5t131 42.5t56 111.5h168q-6 -134 -105.5 -214.5t-249.5 -80.5zM862 -20q-219 0 -395.5 95t-276.5 264t-100 378t100 378t276.5 264t395.5 95t395.5 -95t276.5 -263.5t100 -378.5t-100 -378.5
t-276.5 -263.5t-395.5 -95zM862 213q217 0 360.5 142.5t143.5 361.5t-143.5 361.5t-360.5 142.5t-360.5 -142.5t-143.5 -361.5t143.5 -361.5t360.5 -142.5z" />
    <glyph glyph-name="obreve" unicode="&#x14f;" horiz-adv-x="1320" 
d="M657 1229q-150 0 -249 80.5t-105 214.5h168q3 -69 55.5 -111.5t130.5 -42.5t131 42.5t56 111.5h168q-6 -134 -105.5 -214.5t-249.5 -80.5zM659 -14q-253 0 -417 158t-164 403t164 402t417 157q255 0 419.5 -156.5t164.5 -402.5t-164.5 -403.5t-419.5 -157.5zM659 205
q142 0 234 94t92 248t-92 248t-234 94q-140 0 -231.5 -94t-91.5 -248t91.5 -248t231.5 -94z" />
    <glyph glyph-name="Ohungarumlaut" unicode="&#x150;" horiz-adv-x="1724" 
d="M569 1550l166 281h256l-221 -281h-201zM954 1550l164 281h256l-219 -281h-201zM862 -20q-219 0 -395.5 95t-276.5 264t-100 378t100 378t276.5 264t395.5 95t395.5 -95t276.5 -263.5t100 -378.5t-100 -378.5t-276.5 -263.5t-395.5 -95zM862 213q217 0 360.5 142.5
t143.5 361.5t-143.5 361.5t-360.5 142.5t-360.5 -142.5t-143.5 -361.5t143.5 -361.5t360.5 -142.5z" />
    <glyph glyph-name="ohungarumlaut" unicode="&#x151;" horiz-adv-x="1320" 
d="M365 1243l165 281h256l-221 -281h-200zM750 1243l163 281h256l-219 -281h-200zM659 -14q-253 0 -417 158t-164 403t164 402t417 157q255 0 419.5 -156.5t164.5 -402.5t-164.5 -403.5t-419.5 -157.5zM659 205q142 0 234 94t92 248t-92 248t-234 94q-140 0 -231.5 -94
t-91.5 -248t91.5 -248t231.5 -94z" />
    <glyph glyph-name="OE" unicode="&#x152;" horiz-adv-x="2316" 
d="M1401 223h809v-223h-1338q-349 0 -565.5 197.5t-216.5 517.5q0 213 98 377t276 253t408 89h1309v-224h-780v-372h694v-220h-694v-395zM885 225h252v983h-252q-239 0 -383 -134.5t-144 -358.5q0 -222 144 -356t383 -134z" />
    <glyph glyph-name="oe" unicode="&#x153;" horiz-adv-x="2181" 
d="M2105 541q0 -26 -4 -76h-860q23 -121 117.5 -191.5t238.5 -70.5q179 0 295 119l140 -158q-152 -178 -441 -178q-158 0 -280 56.5t-199 158.5q-73 -102 -189.5 -158.5t-263.5 -56.5q-253 0 -417 158t-164 403t164 402t417 157q145 0 261.5 -55.5t189.5 -155.5
q73 100 187 155.5t253 55.5q244 0 399.5 -155.5t155.5 -409.5zM1550 901q-124 0 -208 -72.5t-103 -193.5h621q-15 119 -100 192.5t-210 73.5zM659 205q142 0 234 94t92 248t-92 248t-234 94q-140 0 -231.5 -94t-91.5 -248t91.5 -248t231.5 -94z" />
    <glyph glyph-name="Racute" unicode="&#x154;" horiz-adv-x="1497" 
d="M1169 1831l-356 -281h-221l276 281h301zM1417 0h-287l-292 420q-18 -2 -56 -2h-323v-418h-266v1434h589q283 0 447 -136.5t164 -373.5q0 -162 -79.5 -279t-226.5 -174zM1124 924q0 136 -90.5 210t-263.5 74h-311v-571h311q173 0 263.5 75t90.5 212z" />
    <glyph glyph-name="racute" unicode="&#x155;" horiz-adv-x="860" 
d="M889 1524l-357 -281h-221l277 281h301zM412 934q111 172 389 172v-244q-34 6 -60 6q-149 0 -233 -86.5t-84 -251.5v-530h-256v1094h244v-160z" />
    <glyph glyph-name="Rcommaaccent" unicode="&#x156;" horiz-adv-x="1497" 
d="M1087 471l330 -471h-287l-292 420q-18 -2 -56 -2h-323v-418h-266v1434h589q283 0 447 -136.5t164 -373.5q0 -162 -79.5 -279t-226.5 -174zM1124 924q0 136 -90.5 210t-263.5 74h-311v-571h311q173 0 263.5 75t90.5 212zM764 -170q56 0 89.5 -31t33.5 -78q0 -58 -33 -120
l-66 -144h-124l49 166q-72 21 -72 98q0 48 33.5 78.5t89.5 30.5z" />
    <glyph glyph-name="rcommaaccent" unicode="&#x157;" horiz-adv-x="860" 
d="M412 934q111 172 389 172v-244q-34 6 -60 6q-149 0 -233 -86.5t-84 -251.5v-530h-256v1094h244v-160zM297 -170q56 0 89.5 -31t33.5 -78q0 -58 -33 -120l-65 -144h-125l49 166q-72 21 -72 98q0 48 33.5 78.5t89.5 30.5z" />
    <glyph glyph-name="Rcaron" unicode="&#x158;" horiz-adv-x="1497" 
d="M881 1550h-234l-274 281h211l180 -152l180 152h211zM1417 0h-287l-292 420q-18 -2 -56 -2h-323v-418h-266v1434h589q283 0 447 -136.5t164 -373.5q0 -162 -79.5 -279t-226.5 -174zM1124 924q0 136 -90.5 210t-263.5 74h-311v-571h311q173 0 263.5 75t90.5 212z" />
    <glyph glyph-name="rcaron" unicode="&#x159;" horiz-adv-x="860" 
d="M600 1243h-233l-275 281h211l180 -152l181 152h210zM412 934q111 172 389 172v-244q-34 6 -60 6q-149 0 -233 -86.5t-84 -251.5v-530h-256v1094h244v-160z" />
    <glyph glyph-name="Sacute" unicode="&#x15a;" horiz-adv-x="1288" 
d="M492 1550l276 281h301l-356 -281h-221zM637 -20q-166 0 -320.5 47.5t-244.5 124.5l92 206q88 -70 215.5 -113.5t257.5 -43.5q160 0 238.5 51t78.5 135q0 49 -29 85.5t-78.5 59t-113.5 40t-134.5 34t-141 36.5t-134.5 51t-113.5 73t-78.5 108.5t-29 151.5q0 88 36 164.5
t105 136t181.5 93.5t255.5 34q131 0 258 -33t219 -94l-84 -207q-192 113 -395 113q-158 0 -234.5 -54t-76.5 -141q0 -61 47 -102.5t122 -64.5t165.5 -43t181 -49t165.5 -70.5t122 -118.5t47 -184q0 -87 -36 -163t-106 -135.5t-182.5 -93.5t-255.5 -34z" />
    <glyph glyph-name="sacute" unicode="&#x15b;" horiz-adv-x="1054" 
d="M348 1243l277 281h301l-357 -281h-221zM506 -14q-134 0 -261 34.5t-202 88.5l98 194q73 -48 176.5 -78t204.5 -30q230 0 230 120q0 37 -29 61.5t-76.5 35.5t-108.5 22t-124 20t-124 31.5t-108.5 54t-76.5 89t-29 135.5q0 156 130 249t351 93q111 0 224.5 -25.5
t185.5 -68.5l-99 -195q-140 82 -313 82q-113 0 -171 -33.5t-58 -89.5q0 -44 37 -71.5t97 -40.5t131.5 -23.5t143.5 -29t132 -49t97 -91t37 -147.5q0 -155 -133 -246.5t-362 -91.5z" />
    <glyph glyph-name="Scircumflex" unicode="&#x15c;" horiz-adv-x="1288" 
d="M664 1702l-181 -152h-211l275 281h233l275 -281h-211zM367 1038q0 -61 47 -102.5t122 -64.5t165.5 -43t181 -49t165.5 -70.5t122 -118.5t47 -184q0 -87 -36 -163t-106 -135.5t-182.5 -93.5t-255.5 -34q-166 0 -320.5 47.5t-244.5 124.5l92 206q88 -70 215.5 -113.5
t257.5 -43.5q160 0 238.5 51t78.5 135q0 49 -29 85.5t-78.5 59t-113.5 40t-134.5 34t-141 36.5t-134.5 51t-113.5 73t-78.5 108.5t-29 151.5q0 88 36 164.5t105 136t181.5 93.5t255.5 34q131 0 258 -33t219 -94l-84 -207q-192 113 -395 113q-158 0 -234.5 -54t-76.5 -141z
" />
    <glyph glyph-name="scircumflex" unicode="&#x15d;" horiz-adv-x="1054" 
d="M520 1395l-180 -152h-211l274 281h234l274 -281h-211zM326 776q0 -44 37 -71.5t97 -40.5t131.5 -23.5t143.5 -29t132 -49t97 -91t37 -147.5q0 -155 -133 -246.5t-362 -91.5q-134 0 -261 34.5t-202 88.5l98 194q73 -48 176.5 -78t204.5 -30q230 0 230 120q0 37 -29 61.5
t-76.5 35.5t-108.5 22t-124 20t-124 31.5t-108.5 54t-76.5 89t-29 135.5q0 156 130 249t351 93q111 0 224.5 -25.5t185.5 -68.5l-99 -195q-140 82 -313 82q-113 0 -171 -33.5t-58 -89.5z" />
    <glyph glyph-name="Scedilla" unicode="&#x15e;" horiz-adv-x="1288" 
d="M1217 406q0 -80 -30.5 -151t-89.5 -128.5t-154.5 -95t-217.5 -47.5l-20 -84q88 -10 133 -56.5t45 -115.5q0 -89 -76.5 -142t-202.5 -53q-112 0 -188 43l47 121q62 -33 139 -33q109 0 109 74q0 67 -109 67h-63l47 177q-153 6 -291.5 52.5t-222.5 117.5l92 206
q88 -70 215.5 -113.5t257.5 -43.5q160 0 238.5 51t78.5 135q0 49 -29 85.5t-78.5 59t-113.5 40t-134.5 34t-141 36.5t-134.5 51t-113.5 73t-78.5 108.5t-29 151.5q0 88 36 164.5t105 136t181.5 93.5t255.5 34q131 0 258 -33t219 -94l-84 -207q-192 113 -395 113
q-158 0 -234.5 -54t-76.5 -141q0 -61 47 -102.5t122 -64.5t165.5 -43t181 -49t165.5 -70.5t122 -118.5t47 -184z" />
    <glyph glyph-name="scedilla" unicode="&#x15f;" horiz-adv-x="1054" 
d="M1001 324q0 -140 -111 -229.5t-306 -106.5l-23 -88q88 -10 133 -56.5t45 -115.5q0 -89 -76 -142t-202 -53q-113 0 -189 43l47 121q62 -33 140 -33q108 0 108 74q0 67 -108 67h-64l49 183q-118 7 -225.5 40.5t-175.5 80.5l98 194q73 -48 176.5 -78t204.5 -30
q230 0 230 120q0 37 -29 61.5t-76.5 35.5t-108.5 22t-124 20t-124 31.5t-108.5 54t-76.5 89t-29 135.5q0 156 130 249t351 93q111 0 224.5 -25.5t185.5 -68.5l-99 -195q-140 82 -313 82q-113 0 -171 -33.5t-58 -89.5q0 -44 37 -71.5t97 -40.5t131.5 -23.5t143.5 -29t132 -49
t97 -91t37 -147.5z" />
    <glyph glyph-name="Scaron" unicode="&#x160;" horiz-adv-x="1288" 
d="M780 1550h-233l-275 281h211l181 -152l180 152h211zM367 1038q0 -61 47 -102.5t122 -64.5t165.5 -43t181 -49t165.5 -70.5t122 -118.5t47 -184q0 -87 -36 -163t-106 -135.5t-182.5 -93.5t-255.5 -34q-166 0 -320.5 47.5t-244.5 124.5l92 206q88 -70 215.5 -113.5
t257.5 -43.5q160 0 238.5 51t78.5 135q0 49 -29 85.5t-78.5 59t-113.5 40t-134.5 34t-141 36.5t-134.5 51t-113.5 73t-78.5 108.5t-29 151.5q0 88 36 164.5t105 136t181.5 93.5t255.5 34q131 0 258 -33t219 -94l-84 -207q-192 113 -395 113q-158 0 -234.5 -54t-76.5 -141z
" />
    <glyph glyph-name="scaron" unicode="&#x161;" horiz-adv-x="1054" 
d="M637 1243h-234l-274 281h211l180 -152l180 152h211zM326 776q0 -44 37 -71.5t97 -40.5t131.5 -23.5t143.5 -29t132 -49t97 -91t37 -147.5q0 -155 -133 -246.5t-362 -91.5q-134 0 -261 34.5t-202 88.5l98 194q73 -48 176.5 -78t204.5 -30q230 0 230 120q0 37 -29 61.5
t-76.5 35.5t-108.5 22t-124 20t-124 31.5t-108.5 54t-76.5 89t-29 135.5q0 156 130 249t351 93q111 0 224.5 -25.5t185.5 -68.5l-99 -195q-140 82 -313 82q-113 0 -171 -33.5t-58 -89.5z" />
    <glyph glyph-name="uni0162" unicode="&#x162;" horiz-adv-x="1232" 
d="M750 0h-68l-25 -100q88 -10 133.5 -56.5t45.5 -115.5q0 -89 -76.5 -142t-202.5 -53q-112 0 -188 43l47 121q62 -33 139 -33q109 0 109 74q0 67 -109 67h-63l51 195h-60v1208h-475v226h1217v-226h-475v-1208z" />
    <glyph glyph-name="uni0163" unicode="&#x163;" horiz-adv-x="868" 
d="M567 -100q88 -10 133 -56.5t45 -115.5q0 -89 -76 -142t-202 -53q-112 0 -188 43l47 121q62 -33 139 -33q108 0 108 74q0 67 -108 67h-64l52 195q-121 30 -185.5 119.5t-64.5 234.5v527h-180v204h180v250h256v-250h293v-204h-293v-521q0 -79 38.5 -121t112.5 -42
q87 0 144 45l71 -183q-87 -70 -235 -73z" />
    <glyph glyph-name="Tcaron" unicode="&#x164;" horiz-adv-x="1232" 
d="M733 1550h-233l-275 281h211l180 -152l181 152h211zM8 1434h1217v-226h-475v-1208h-267v1208h-475v226z" />
    <glyph glyph-name="tcaron" unicode="&#x165;" horiz-adv-x="868" 
d="M805 1571l-27 -361h-166v361h193zM754 242l71 -183q-91 -73 -245 -73q-181 0 -279 94t-98 274v527h-180v204h180v250h256v-250h293v-204h-293v-521q0 -79 38.5 -121t112.5 -42q87 0 144 45z" />
    <glyph glyph-name="Tbar" unicode="&#x166;" horiz-adv-x="1232" 
d="M1225 1208h-475v-428h292v-196h-292v-584h-267v584h-293v196h293v428h-475v226h1217v-226z" />
    <glyph glyph-name="tbar" unicode="&#x167;" horiz-adv-x="888" 
d="M764 242l72 -183q-91 -73 -246 -73q-181 0 -279 94t-98 274v140h-154v165h154v222h-180v204h180v250h256v-250h293v-204h-293v-222h268v-165h-268v-134q0 -79 39 -121t113 -42q86 0 143 45z" />
    <glyph glyph-name="Utilde" unicode="&#x168;" horiz-adv-x="1615" 
d="M958 1550q-46 0 -90 21t-72 47t-60 47t-56 21q-43 0 -70 -32.5t-30 -90.5h-138q3 126 63.5 200t158.5 74q46 0 90 -21t72 -46.5t60 -46.5t56 -21q43 0 70 31t30 86h138q-3 -121 -63.5 -195t-158.5 -74zM809 -20q-297 0 -463 167t-166 478v809h266v-799q0 -422 365 -422
q363 0 363 422v799h262v-809q0 -311 -165.5 -478t-461.5 -167z" />
    <glyph glyph-name="utilde" unicode="&#x169;" horiz-adv-x="1394" 
d="M561 1378q-43 0 -70 -32.5t-30 -90.5h-137q3 126 63 200.5t158 74.5q46 0 90 -21t72 -46.5t60 -46.5t56 -21q43 0 70.5 30.5t30.5 85.5h137q-3 -121 -63 -194.5t-158 -73.5q-46 0 -90 21t-72.5 46.5t-60.5 46.5t-56 21zM971 1094h256v-1094h-244v139q-61 -74 -153 -113.5
t-199 -39.5q-218 0 -344.5 121.5t-126.5 361.5v625h256v-590q0 -147 66 -220t190 -73q137 0 218 85t81 245v553z" />
    <glyph glyph-name="Umacron" unicode="&#x16a;" horiz-adv-x="1615" 
d="M457 1614v153h708v-153h-708zM809 -20q-297 0 -463 167t-166 478v809h266v-799q0 -422 365 -422q363 0 363 422v799h262v-809q0 -311 -165.5 -478t-461.5 -167z" />
    <glyph glyph-name="umacron" unicode="&#x16b;" horiz-adv-x="1394" 
d="M1047 1460v-153h-709v153h709zM971 1094h256v-1094h-244v139q-61 -74 -153 -113.5t-199 -39.5q-218 0 -344.5 121.5t-126.5 361.5v625h256v-590q0 -147 66 -220t190 -73q137 0 218 85t81 245v553z" />
    <glyph glyph-name="Ubreve" unicode="&#x16c;" horiz-adv-x="1615" 
d="M811 1536q-150 0 -249 80.5t-105 214.5h168q3 -69 55.5 -111.5t130.5 -42.5t130.5 42.5t55.5 111.5h168q-6 -134 -105 -214.5t-249 -80.5zM809 -20q-297 0 -463 167t-166 478v809h266v-799q0 -422 365 -422q363 0 363 422v799h262v-809q0 -311 -165.5 -478t-461.5 -167z
" />
    <glyph glyph-name="ubreve" unicode="&#x16d;" horiz-adv-x="1394" 
d="M692 1229q-150 0 -249 80.5t-105 214.5h168q3 -69 55.5 -111.5t130.5 -42.5t131 42.5t56 111.5h168q-6 -134 -105.5 -214.5t-249.5 -80.5zM971 1094h256v-1094h-244v139q-61 -74 -153 -113.5t-199 -39.5q-218 0 -344.5 121.5t-126.5 361.5v625h256v-590q0 -147 66 -220
t190 -73q137 0 218 85t81 245v553z" />
    <glyph glyph-name="Uring" unicode="&#x16e;" horiz-adv-x="1615" 
d="M809 1554q-101 0 -169.5 68.5t-68.5 165.5q0 99 68.5 168t169.5 69q102 0 171 -69t69 -168q0 -98 -69 -166t-171 -68zM809 1659q57 0 94 36.5t37 92.5q0 57 -37.5 95t-93.5 38q-55 0 -92 -37.5t-37 -95.5q0 -56 37 -92.5t92 -36.5zM809 -20q-297 0 -463 167t-166 478v809
h266v-799q0 -422 365 -422q363 0 363 422v799h262v-809q0 -311 -165.5 -478t-461.5 -167z" />
    <glyph glyph-name="uring" unicode="&#x16f;" horiz-adv-x="1394" 
d="M690 1214q-100 0 -168.5 68t-68.5 166q0 99 68.5 168.5t168.5 69.5q102 0 171 -69.5t69 -168.5q0 -98 -69 -166t-171 -68zM690 1581q-55 0 -92 -37.5t-37 -95.5q0 -56 36.5 -92.5t92.5 -36.5q57 0 94 36.5t37 92.5q0 57 -37.5 95t-93.5 38zM971 1094h256v-1094h-244v139
q-61 -74 -153 -113.5t-199 -39.5q-218 0 -344.5 121.5t-126.5 361.5v625h256v-590q0 -147 66 -220t190 -73q137 0 218 85t81 245v553z" />
    <glyph glyph-name="Uhungarumlaut" unicode="&#x170;" horiz-adv-x="1615" 
d="M518 1550l166 281h256l-221 -281h-201zM903 1550l164 281h256l-219 -281h-201zM809 -20q-297 0 -463 167t-166 478v809h266v-799q0 -422 365 -422q363 0 363 422v799h262v-809q0 -311 -165.5 -478t-461.5 -167z" />
    <glyph glyph-name="uhungarumlaut" unicode="&#x171;" horiz-adv-x="1394" 
d="M821 1524l-221 -281h-201l166 281h256zM985 1243h-201l164 281h256zM971 1094h256v-1094h-244v139q-61 -74 -153 -113.5t-199 -39.5q-218 0 -344.5 121.5t-126.5 361.5v625h256v-590q0 -147 66 -220t190 -73q137 0 218 85t81 245v553z" />
    <glyph glyph-name="Uogonek" unicode="&#x172;" horiz-adv-x="1615" 
d="M1174 1434h262v-809q0 -471 -377 -609q-289 -107 -289 -243q0 -47 33 -74t88 -27q71 0 125 33l43 -125q-83 -47 -197 -47q-124 0 -194 60t-70 159q0 132 129 232q-260 22 -403.5 187.5t-143.5 453.5v809h266v-799q0 -422 365 -422q363 0 363 422v799z" />
    <glyph glyph-name="uogonek" unicode="&#x173;" horiz-adv-x="1394" 
d="M1231 -295l43 -125q-83 -47 -195 -47q-124 0 -195 60.5t-71 158.5q0 149 170 258v129q-61 -74 -153 -113.5t-199 -39.5q-218 0 -344.5 121.5t-126.5 361.5v625h256v-590q0 -147 66 -220t190 -73q137 0 218 85t81 245v553h256v-1094q-128 -58 -185 -112t-57 -115
q0 -47 33 -74t88 -27q71 0 125 33z" />
    <glyph glyph-name="Wcircumflex" unicode="&#x174;" horiz-adv-x="2342" 
d="M1174 1702l-181 -152h-211l275 281h233l275 -281h-211zM2034 1434h254l-476 -1434h-282l-354 1061l-361 -1061h-285l-475 1434h277l356 -1090l371 1090h246l362 -1096z" />
    <glyph glyph-name="wcircumflex" unicode="&#x175;" horiz-adv-x="1882" 
d="M936 1391l-180 -152h-211l274 281h234l274 -281h-211zM1647 1094h227l-404 -1094h-245l-283 754l-287 -754h-245l-402 1094h242l289 -807l301 807h215l295 -811z" />
    <glyph glyph-name="Ycircumflex" unicode="&#x176;" horiz-adv-x="1353" 
d="M678 1702l-180 -152h-211l274 281h234l274 -281h-211zM1372 1434l-561 -928v-506h-266v502l-563 932h284l420 -699l424 699h262z" />
    <glyph glyph-name="ycircumflex" unicode="&#x177;" horiz-adv-x="1183" 
d="M565 1395l-180 -152h-211l275 281h233l274 -281h-211zM946 1094h246l-512 -1182q-72 -178 -174.5 -251t-247.5 -73q-82 0 -161.5 27t-131.5 74l103 188q79 -76 188 -76q67 0 111.5 35t81.5 117l18 43l-477 1098h266l344 -809z" />
    <glyph glyph-name="Ydieresis" unicode="&#x178;" horiz-adv-x="1353" 
d="M479 1573q-53 0 -88 34.5t-35 88.5q0 55 35 90t88 35t88 -35t35 -90q0 -54 -35 -88.5t-88 -34.5zM877 1573q-53 0 -88 34.5t-35 88.5q0 55 35 90t88 35t87.5 -35t34.5 -90q0 -54 -34.5 -88.5t-87.5 -34.5zM1372 1434l-561 -928v-506h-266v502l-563 932h284l420 -699
l424 699h262z" />
    <glyph glyph-name="Zacute" unicode="&#x179;" horiz-adv-x="1357" 
d="M1102 1831l-357 -281h-221l277 281h301zM436 225h871v-225h-1223v178l844 1030h-830v226h1182v-179z" />
    <glyph glyph-name="zacute" unicode="&#x17a;" horiz-adv-x="1089" 
d="M954 1524l-356 -281h-221l276 281h301zM403 205h619v-205h-944v162l600 727h-588v205h916v-162z" />
    <glyph glyph-name="Zdotaccent" unicode="&#x17b;" horiz-adv-x="1357" 
d="M696 1575q-63 0 -104 41t-41 104t41 104.5t104 41.5t104.5 -41.5t41.5 -104.5t-41.5 -104t-104.5 -41zM436 225h871v-225h-1223v178l844 1030h-830v226h1182v-179z" />
    <glyph glyph-name="zdotaccent" unicode="&#x17c;" horiz-adv-x="1089" 
d="M549 1268q-63 0 -104.5 41t-41.5 104t41.5 104.5t104.5 41.5t104 -41.5t41 -104.5t-41 -104t-104 -41zM403 205h619v-205h-944v162l600 727h-588v205h916v-162z" />
    <glyph glyph-name="Zcaron" unicode="&#x17d;" horiz-adv-x="1357" 
d="M813 1550h-233l-275 281h211l180 -152l181 152h210zM436 225h871v-225h-1223v178l844 1030h-830v226h1182v-179z" />
    <glyph glyph-name="zcaron" unicode="&#x17e;" horiz-adv-x="1089" 
d="M666 1243h-234l-274 281h211l180 -152l180 152h211zM403 205h619v-205h-944v162l600 727h-588v205h916v-162z" />
    <glyph glyph-name="longs" unicode="&#x17f;" horiz-adv-x="653" 
d="M616 1534q148 0 230 -59l-72 -193q-62 45 -139 45q-156 0 -156 -176v-1151h-256v881h-178v204h178v70q0 175 102.5 277t290.5 102z" />
    <glyph glyph-name="uni018F" unicode="&#x18f;" horiz-adv-x="1673" 
d="M823 1454q163 0 304.5 -55.5t241.5 -152.5t157 -233.5t57 -293.5q0 -211 -96.5 -380t-267 -264t-381.5 -95q-213 0 -384 95.5t-267.5 267t-96.5 386.5v66h1221q-23 186 -161 306t-329 120q-125 0 -240 -42.5t-196 -125.5l-160 180q103 103 260 162t338 59zM838 203
q189 0 312.5 103t154.5 280h-938q34 -179 159 -281t312 -102z" />
    <glyph glyph-name="florin" unicode="&#x192;" horiz-adv-x="950" 
d="M793 1323q-166 0 -187 -174l-12 -90h301l-25 -205h-292l-111 -887q-22 -174 -131.5 -276.5t-284.5 -102.5q-160 0 -241 66l90 188q55 -43 139 -43q72 0 117 44t55 130l111 881h-179l25 205h178l12 96q21 174 133 276.5t293 102.5q156 0 234 -66l-92 -188q-56 43 -133 43z
" />
    <glyph glyph-name="Ohorn" unicode="&#x1a0;" horiz-adv-x="1724" 
d="M1374 1278q120 -96 190 -243t70 -318q0 -210 -100 -378.5t-276.5 -263.5t-395.5 -95t-395.5 95t-276.5 264t-100 378q0 210 100.5 378.5t279.5 263.5t402 95q86 0 210.5 -14.5t172.5 -14.5q88 0 135.5 36.5t47.5 105.5q0 65 -41 127l155 57q62 -85 62 -192
q0 -112 -62 -184t-178 -97zM862 213q217 0 360.5 143t143.5 361t-143.5 361t-360.5 143t-360.5 -142.5t-143.5 -361.5t143.5 -361.5t360.5 -142.5z" />
    <glyph glyph-name="ohorn" unicode="&#x1a1;" horiz-adv-x="1320" 
d="M1063 963q86 -76 133 -182.5t47 -233.5q0 -245 -165 -403t-419 -158q-253 0 -417 158t-164 403t165 402t421 157q56 0 130 -7t113 -7q71 0 107.5 37.5t36.5 97.5q0 67 -43 127l155 57q64 -88 64 -192q0 -90 -42.5 -156t-121.5 -100zM659 205q142 0 234 94t92 248t-92 248
t-234 94q-140 0 -231.5 -94t-91.5 -248t91.5 -248t231.5 -94z" />
    <glyph glyph-name="Uhorn" unicode="&#x1af;" horiz-adv-x="1636" 
d="M1651 1556q0 -117 -56 -193t-159 -101v-637q0 -311 -165.5 -478t-461.5 -167q-297 0 -463 167t-166 478v809h266v-799q0 -422 365 -422q363 0 363 422v799h172q60 0 93.5 36t33.5 95q0 73 -41 127l157 57q62 -78 62 -193z" />
    <glyph glyph-name="uhorn" unicode="&#x1b0;" horiz-adv-x="1417" 
d="M1409 1217q0 -107 -47 -181.5t-135 -103.5v-932h-244v139q-61 -74 -153 -113.5t-199 -39.5q-218 0 -344.5 121.5t-126.5 361.5v625h256v-590q0 -147 66 -220t190 -73q137 0 218 85t81 245v553h133q60 0 93.5 36t33.5 95q0 73 -41 127l158 57q61 -77 61 -192z" />
    <glyph glyph-name="uni01B7" unicode="&#x1b7;" horiz-adv-x="1292" 
d="M756 842q218 -23 333 -132.5t115 -279.5q0 -93 -36.5 -173.5t-107.5 -143t-186 -98t-262 -35.5q-163 0 -312 43t-241 118l95 209q81 -66 200.5 -104.5t249.5 -38.5q156 0 244 59t88 164q0 101 -84.5 158t-253.5 57h-135v178l358 391h-704v220h1018v-179z" />
    <glyph glyph-name="uni01C4" unicode="&#x1c4;" horiz-adv-x="2973" 
d="M2419 1550h-234l-274 281h211l180 -152l180 152h211zM819 1434q230 0 408 -89t276.5 -252.5t98.5 -375.5t-98.5 -375.5t-276.5 -252.5t-408 -89h-626v1434h626zM2042 225h870v-225h-1222v178l843 1030h-829v226h1182v-179zM807 225q239 0 382.5 134.5t143.5 357.5
t-143.5 357t-382.5 134h-348v-983h348z" />
    <glyph glyph-name="uni01C5" unicode="&#x1c5;" horiz-adv-x="2781" 
d="M2357 1243h-233l-275 281h211l181 -152l180 152h211zM819 1434q230 0 408 -89t276.5 -252.5t98.5 -375.5t-98.5 -375.5t-276.5 -252.5t-408 -89h-626v1434h626zM807 225q239 0 382.5 134.5t143.5 357.5t-143.5 357t-382.5 134h-348v-983h348zM2095 205h619v-205h-945v162
l601 727h-588v205h915v-162z" />
    <glyph glyph-name="uni01C6" unicode="&#x1c6;" horiz-adv-x="2500" 
d="M2060 1243h-233l-275 281h211l181 -152l180 152h211zM983 958v562h256v-1520h-246v141q-128 -155 -362 -155q-158 0 -283.5 68.5t-197.5 197t-72 295.5t72 295t197.5 196t283.5 68q225 0 352 -148zM1798 205h619v-205h-944v162l600 727h-588v205h915v-162zM662 205
q141 0 233 94t92 248t-92 248t-233 94t-233.5 -94t-92.5 -248t92.5 -248t233.5 -94z" />
    <glyph glyph-name="uni01C7" unicode="&#x1c7;" horiz-adv-x="2306" 
d="M1350 1434h776v-951q0 -252 -123 -377.5t-361 -125.5q-133 0 -247 51t-187 145v-176h-1015v1434h266v-1209h749v-28l144 172q121 -164 284 -164q224 0 224 264v741h-510v224z" />
    <glyph glyph-name="uni01C8" unicode="&#x1c8;" horiz-adv-x="1830" 
d="M1534 1274q-70 0 -117 44t-47 109t47 109.5t117 44.5t117 -42t47 -105q0 -68 -46.5 -114t-117.5 -46zM193 0v1434h266v-1209h749v-225h-1015zM1282 -412q-162 0 -246 64l74 190q58 -43 150 -43q147 0 147 174v1121h256v-1114q0 -182 -100 -287t-281 -105z" />
    <glyph glyph-name="uni01C9" unicode="&#x1c9;" horiz-adv-x="1196" 
d="M899 1274q-70 0 -117 44t-47 109t47 109.5t117 44.5t117 -42t47 -105q0 -68 -46.5 -114t-117.5 -46zM168 0v1520h256v-1520h-256zM647 -412q-162 0 -246 64l74 190q58 -43 150 -43q147 0 147 174v1121h256v-1114q0 -182 -100 -287t-281 -105z" />
    <glyph glyph-name="uni01CA" unicode="&#x1ca;" horiz-adv-x="2738" 
d="M1202 463v971h264v-1434h-219l-790 971v-971h-264v1434h219zM1782 1434h776v-951q0 -252 -122.5 -377.5t-360.5 -125.5q-136 0 -253 53.5t-190 152.5l152 183q121 -164 284 -164q224 0 224 264v741h-510v224z" />
    <glyph glyph-name="uni01CB" unicode="&#x1cb;" horiz-adv-x="2263" 
d="M1966 1274q-70 0 -117 44t-47 109t47 109.5t117 44.5t117 -42t47 -105q0 -68 -46.5 -114t-117.5 -46zM1202 463v971h264v-1434h-219l-790 971v-971h-264v1434h219zM1839 -27v1121h256v-1114q0 -182 -100 -287t-281 -105q-162 0 -246 64l74 190q58 -43 150 -43
q147 0 147 174z" />
    <glyph glyph-name="uni01CC" unicode="&#x1cc;" horiz-adv-x="2007" 
d="M1710 1274q-70 0 -117 44t-47 109t47 109.5t117 44.5t117 -42t47 -105q0 -68 -46.5 -114t-117.5 -46zM1245 0h-256v594q0 144 -67.5 216.5t-192.5 72.5q-140 0 -222.5 -85t-82.5 -245v-553h-256v1094h244v-142q129 154 376 154q100 0 182 -29t144 -86.5t96.5 -150
t34.5 -213.5v-627zM1583 -27v1121h256v-1114q0 -182 -100 -287t-281 -105q-162 0 -246 64l74 190q58 -43 150 -43q147 0 147 174z" />
    <glyph glyph-name="uni01CD" unicode="&#x1cd;" horiz-adv-x="1533" 
d="M883 1550h-234l-274 281h211l180 -152l180 152h211zM1266 0l-144 332h-716l-142 -332h-274l645 1434h262l647 -1434h-278zM496 541h538l-270 626z" />
    <glyph glyph-name="uni01CE" unicode="&#x1ce;" horiz-adv-x="1243" 
d="M725 1243h-233l-275 281h211l180 -152l180 152h211zM586 1106q240 0 368.5 -116t128.5 -349v-641h-241v133q-95 -147 -344 -147q-185 0 -296.5 91.5t-111.5 235.5q0 71 25 128.5t77.5 102.5t142 70t210.5 25h282v16q0 114 -68.5 176t-203.5 62q-93 0 -182 -29t-150 -80
l-100 187q86 66 207 100.5t256 34.5zM551 172q97 0 171 43.5t105 126.5v127h-264q-221 0 -221 -145q0 -70 56 -111t153 -41z" />
    <glyph glyph-name="uni01D3" unicode="&#x1d3;" horiz-adv-x="1615" 
d="M928 1550h-234l-274 281h211l180 -152l180 152h211zM1174 1434h262v-809q0 -311 -165.5 -478t-461.5 -167q-297 0 -463 167t-166 478v809h266v-799q0 -422 365 -422q363 0 363 422v799z" />
    <glyph glyph-name="uni01D4" unicode="&#x1d4;" horiz-adv-x="1394" 
d="M809 1243h-234l-274 281h211l180 -152l180 152h211zM971 1094h256v-1094h-244v139q-61 -74 -153 -113.5t-199 -39.5q-218 0 -344.5 121.5t-126.5 361.5v625h256v-590q0 -147 66 -220t190 -73q137 0 218 85t81 245v553z" />
    <glyph glyph-name="uni01E4" unicode="&#x1e4;" horiz-adv-x="1656" 
d="M1612 594v-197h-189v-235q-110 -89 -257.5 -135.5t-303.5 -46.5q-219 0 -395.5 94.5t-276.5 263t-100 379.5t100 379.5t277 263t399 94.5q181 0 328 -59t248 -174l-168 -164q-164 164 -395 164q-229 0 -375 -141t-146 -363q0 -219 146 -361.5t373 -142.5q166 0 294 74
v110h-360v197h360v139h252v-139h189z" />
    <glyph glyph-name="uni01E5" unicode="&#x1e5;" horiz-adv-x="1441" 
d="M1384 53v-155h-174q-115 -310 -548 -310q-156 0 -298.5 40.5t-232.5 115.5l115 190q73 -61 181.5 -97t221.5 -36q189 0 277 97h-355v153l420 2q6 38 6 80v117q-133 -139 -368 -139q-240 0 -395.5 139t-155.5 360q0 145 71.5 258.5t197 175.5t282.5 62q247 0 381 -152v140
h243v-928q0 -60 -6 -113h137zM670 313q147 0 239 82t92 215q0 132 -92 213.5t-239 81.5q-148 0 -241 -81.5t-93 -213.5q0 -133 93 -215t241 -82z" />
    <glyph glyph-name="Gcaron" unicode="&#x1e6;" horiz-adv-x="1581" 
d="M965 1550h-234l-274 281h211l180 -152l180 152h211zM1171 287v446h252v-571q-110 -89 -257.5 -135.5t-303.5 -46.5q-219 0 -395.5 94.5t-276.5 263t-100 379.5t100 379.5t277 263t399 94.5q181 0 328 -59t248 -174l-168 -164q-164 164 -395 164q-229 0 -375 -141
t-146 -363q0 -219 146 -361.5t373 -142.5q166 0 294 74z" />
    <glyph glyph-name="gcaron" unicode="&#x1e7;" horiz-adv-x="1421" 
d="M803 1243h-234l-274 281h211l180 -152l180 152h211zM1010 1094h243v-928q0 -578 -589 -578q-157 0 -299 40.5t-234 115.5l115 193q72 -60 181 -96t222 -36q180 0 264 82t84 250v58q-134 -146 -366 -146q-156 0 -281.5 66t-198.5 188t-73 277q0 234 157.5 380t395.5 146
q249 0 379 -158v146zM670 266q145 0 238 87.5t93 226.5q0 137 -93 223t-238 86q-147 0 -240.5 -86t-93.5 -223q0 -139 93.5 -226.5t240.5 -87.5z" />
    <glyph glyph-name="uni01E8" unicode="&#x1e8;" horiz-adv-x="1492" 
d="M889 1550h-234l-274 281h211l180 -152l180 152h211zM1192 0l-506 600l-227 -233v-367h-266v1434h266v-736l708 736h299l-602 -641l639 -793h-311z" />
    <glyph glyph-name="uni01E9" unicode="&#x1e9;" horiz-adv-x="1302" 
d="M414 1669h-234l-274 281h211l180 -152l180 152h211zM993 0l-379 469l-190 -180v-289h-256v1520h256v-918l530 492h308l-457 -459l500 -635h-312z" />
    <glyph glyph-name="uni01EA" unicode="&#x1ea;" horiz-adv-x="1724" 
d="M862 1454q219 0 395.5 -95t276.5 -263.5t100 -378.5q0 -177 -73 -325t-194 -243t-275 -137q-140 -39 -216.5 -102.5t-76.5 -136.5q0 -47 33 -74t88 -27q70 0 124 33l43 -125q-83 -47 -196 -47q-123 0 -193.5 60.5t-70.5 158.5q0 136 131 234q-294 34 -481 237t-187 494
q0 157 59 294.5t161 234.5t245.5 152.5t306.5 55.5zM862 213q217 0 360.5 142.5t143.5 361.5t-143.5 361.5t-360.5 142.5t-360.5 -142.5t-143.5 -361.5t143.5 -361.5t360.5 -142.5z" />
    <glyph glyph-name="uni01EB" unicode="&#x1eb;" horiz-adv-x="1320" 
d="M901 29q-152 -63 -212 -125.5t-60 -128.5q0 -49 33 -76t88 -27q70 0 124 33l41 -125q-79 -47 -194 -47q-123 0 -193.5 59.5t-70.5 155.5q0 140 133 242q-226 22 -369 176t-143 381q0 245 164 402t417 157q255 0 419.5 -156.5t164.5 -402.5q0 -179 -91.5 -314t-250.5 -204
zM336 547q0 -154 91.5 -248t231.5 -94q142 0 234 94t92 248t-92 248t-234 94q-140 0 -231.5 -94t-91.5 -248z" />
    <glyph glyph-name="uni01EE" unicode="&#x1ee;" horiz-adv-x="1292" 
d="M745 1550h-233l-274 281h211l180 -152l180 152h211zM756 842q218 -23 333 -132.5t115 -279.5q0 -93 -36.5 -173.5t-107.5 -143t-186 -98t-262 -35.5q-163 0 -312 43t-241 118l95 209q81 -66 200.5 -104.5t249.5 -38.5q156 0 244 59t88 164q0 101 -84.5 158t-253.5 57
h-135v178l358 391h-704v220h1018v-179z" />
    <glyph glyph-name="uni01EF" unicode="&#x1ef;" horiz-adv-x="1107" 
d="M596 1243h-234l-274 281h211l180 -152l180 152h211zM627 477q206 -23 314 -136.5t108 -289.5q0 -96 -35 -179t-102.5 -147t-176.5 -100.5t-248 -36.5q-155 0 -295 45t-231 123l94 211q75 -69 187.5 -109t234.5 -40q147 0 227 61t80 172q0 108 -76.5 169t-234.5 61h-133
v178l338 413h-662v222h967v-181z" />
    <glyph glyph-name="Aringacute" unicode="&#x1fa;" horiz-adv-x="1533" 
d="M764 1554q-101 0 -169.5 68.5t-68.5 165.5q0 99 68.5 168t169.5 69q58 0 108 -24l175 178l131 -102l-211 -160q37 -58 37 -129q0 -98 -69 -166t-171 -68zM764 1921q-55 0 -92 -37.5t-37 -95.5q0 -56 36.5 -92.5t92.5 -36.5q57 0 94 36.5t37 92.5q0 57 -37.5 95t-93.5 38z
M1266 0l-144 332h-716l-142 -332h-274l645 1434h262l647 -1434h-278zM496 541h538l-270 626z" />
    <glyph glyph-name="aringacute" unicode="&#x1fb;" horiz-adv-x="1243" 
d="M606 1214q-100 0 -168.5 68t-68.5 166q0 99 68.5 168.5t168.5 69.5q57 0 109 -25l174 178l131 -102l-211 -160q37 -58 37 -129q0 -98 -69 -166t-171 -68zM606 1581q-55 0 -92 -37.5t-37 -95.5q0 -56 36.5 -92.5t92.5 -36.5q57 0 94 36.5t37 92.5q0 57 -37.5 95t-93.5 38z
M586 1106q240 0 368.5 -116t128.5 -349v-641h-241v133q-95 -147 -344 -147q-185 0 -296.5 91.5t-111.5 235.5q0 71 25 128.5t77.5 102.5t142 70t210.5 25h282v16q0 114 -68.5 176t-203.5 62q-93 0 -182 -29t-150 -80l-100 187q86 66 207 100.5t256 34.5zM551 172
q97 0 171 43.5t105 126.5v127h-264q-221 0 -221 -145q0 -70 56 -111t153 -41z" />
    <glyph glyph-name="AEacute" unicode="&#x1fc;" horiz-adv-x="2177" 
d="M1534 1831l-356 -281h-222l277 281h301zM1264 223h809v-223h-1076v332h-544l-189 -332h-274l831 1434h1223v-224h-780v-372h692v-220h-692v-395zM571 541h426v669h-45z" />
    <glyph glyph-name="aeacute" unicode="&#x1fd;" horiz-adv-x="2033" 
d="M1362 1524l-356 -281h-222l277 281h301zM1956 551q0 -47 -6 -82h-863q20 -122 115 -194t240 -72q175 0 297 119l139 -158q-155 -178 -442 -178q-313 0 -478 200q-124 -200 -426 -200q-205 0 -323.5 92.5t-118.5 245.5q0 139 110.5 226t344.5 87h282v18q0 114 -68.5 176
t-201.5 62q-94 0 -183.5 -29t-150.5 -80l-100 187q86 66 207.5 100.5t253.5 34.5q289 0 407 -168q73 79 179 123.5t229 44.5q157 0 284 -69.5t200 -197t73 -288.5zM1397 901q-114 0 -203.5 -69t-108.5 -195h619q-16 125 -104 194.5t-203 69.5zM555 172q127 0 199.5 65.5
t72.5 174.5v57h-264q-221 0 -221 -141q0 -73 56.5 -114.5t156.5 -41.5z" />
    <glyph glyph-name="Oslashacute" unicode="&#x1fe;" horiz-adv-x="1724" 
d="M1268 1831l-357 -281h-221l277 281h301zM1366 1288q127 -102 197.5 -249t70.5 -322q0 -210 -100 -378.5t-276.5 -263.5t-395.5 -95q-206 0 -370 83l-148 -206h-190l206 288q-128 101 -199 248.5t-71 323.5q0 209 100 378t276.5 264t395.5 95q200 0 373 -84l147 207h191z
M358 717q0 -222 148 -367l586 819q-107 52 -230 52q-217 0 -360.5 -142.5t-143.5 -361.5zM862 213q217 0 360.5 142.5t143.5 361.5q0 220 -147 364l-584 -819q107 -49 227 -49z" />
    <glyph glyph-name="oslashacute" unicode="&#x1ff;" horiz-adv-x="1320" 
d="M1059 1524l-357 -281h-221l277 281h301zM1024 995q104 -76 161.5 -191.5t57.5 -256.5q0 -246 -164.5 -403.5t-419.5 -157.5q-142 0 -260 53l-120 -184h-144l160 243q-103 76 -160 192t-57 257q0 245 164 402t417 157q144 0 261 -51l116 176h144zM336 547q0 -151 90 -248
l369 563q-61 27 -136 27q-140 0 -231.5 -94t-91.5 -248zM659 205q142 0 234 94t92 248q0 153 -92 248l-369 -564q59 -26 135 -26z" />
    <glyph glyph-name="uni0200" unicode="&#x200;" horiz-adv-x="1533" 
d="M674 1550h-201l-219 281h256zM1059 1550h-201l-221 281h256zM1266 0l-144 332h-716l-142 -332h-274l645 1434h262l647 -1434h-278zM496 541h538l-270 626z" />
    <glyph glyph-name="uni0201" unicode="&#x201;" horiz-adv-x="1243" 
d="M516 1243h-201l-219 281h256zM901 1243h-201l-221 281h256zM586 1106q240 0 368.5 -116t128.5 -349v-641h-241v133q-95 -147 -344 -147q-185 0 -296.5 91.5t-111.5 235.5q0 71 25 128.5t77.5 102.5t142 70t210.5 25h282v16q0 114 -68.5 176t-203.5 62q-93 0 -182 -29
t-150 -80l-100 187q86 66 207 100.5t256 34.5zM551 172q97 0 171 43.5t105 126.5v127h-264q-221 0 -221 -145q0 -70 56 -111t153 -41z" />
    <glyph glyph-name="uni0202" unicode="&#x202;" horiz-adv-x="1533" 
d="M766 1706q-78 0 -130.5 -42.5t-55.5 -113.5h-168q6 134 105 214.5t249 80.5t249 -80.5t105 -214.5h-168q-3 71 -55.5 113.5t-130.5 42.5zM1266 0l-144 332h-716l-142 -332h-274l645 1434h262l647 -1434h-278zM496 541h538l-270 626z" />
    <glyph glyph-name="uni0203" unicode="&#x203;" horiz-adv-x="1243" 
d="M608 1399q-78 0 -130.5 -42.5t-55.5 -113.5h-168q6 134 105 214.5t249 80.5t249.5 -80.5t105.5 -214.5h-168q-3 71 -56 113.5t-131 42.5zM586 1106q240 0 368.5 -116t128.5 -349v-641h-241v133q-95 -147 -344 -147q-185 0 -296.5 91.5t-111.5 235.5q0 71 25 128.5
t77.5 102.5t142 70t210.5 25h282v16q0 114 -68.5 176t-203.5 62q-93 0 -182 -29t-150 -80l-100 187q86 66 207 100.5t256 34.5zM551 172q97 0 171 43.5t105 126.5v127h-264q-221 0 -221 -145q0 -70 56 -111t153 -41z" />
    <glyph glyph-name="uni0204" unicode="&#x204;" horiz-adv-x="1372" 
d="M627 1550h-201l-219 281h256zM1012 1550h-201l-221 281h256zM459 223h809v-223h-1075v1434h1046v-224h-780v-372h692v-220h-692v-395z" />
    <glyph glyph-name="uni0205" unicode="&#x205;" horiz-adv-x="1273" 
d="M545 1243h-201l-219 281h256zM930 1243h-201l-221 281h256zM1196 541q0 -26 -4 -76h-858q23 -121 117.5 -191.5t236.5 -70.5q181 0 297 119l137 -158q-149 -178 -440 -178q-272 0 -438 157t-166 404q0 244 160 401.5t405 157.5q242 0 397.5 -155.5t155.5 -409.5zM643 901
q-124 0 -208 -72.5t-103 -193.5h620q-15 119 -99.5 192.5t-209.5 73.5z" />
    <glyph glyph-name="uni0206" unicode="&#x206;" horiz-adv-x="1372" 
d="M719 1706q-78 0 -131 -42.5t-56 -113.5h-167q6 134 105 214.5t249 80.5t249 -80.5t105 -214.5h-168q-3 71 -55.5 113.5t-130.5 42.5zM459 223h809v-223h-1075v1434h1046v-224h-780v-372h692v-220h-692v-395z" />
    <glyph glyph-name="uni0207" unicode="&#x207;" horiz-adv-x="1273" 
d="M637 1399q-78 0 -130.5 -42.5t-55.5 -113.5h-168q6 134 105 214.5t249 80.5t249 -80.5t105 -214.5h-168q-3 71 -55.5 113.5t-130.5 42.5zM1196 541q0 -26 -4 -76h-858q23 -121 117.5 -191.5t236.5 -70.5q181 0 297 119l137 -158q-149 -178 -440 -178q-272 0 -438 157
t-166 404q0 244 160 401.5t405 157.5q242 0 397.5 -155.5t155.5 -409.5zM643 901q-124 0 -208 -72.5t-103 -193.5h620q-15 119 -99.5 192.5t-209.5 73.5z" />
    <glyph glyph-name="uni0208" unicode="&#x208;" horiz-adv-x="653" 
d="M33 1550l-219 281h256l163 -281h-200zM418 1550l-221 281h256l165 -281h-200zM193 0v1434h266v-1434h-266z" />
    <glyph glyph-name="uni0209" unicode="&#x209;" horiz-adv-x="591" 
d="M4 1243l-219 281h256l164 -281h-201zM389 1243l-221 281h256l166 -281h-201zM168 0v1094h256v-1094h-256z" />
    <glyph glyph-name="uni020A" unicode="&#x20a;" horiz-adv-x="653" 
d="M-29 1550q6 134 105.5 214.5t249.5 80.5t249 -80.5t105 -214.5h-168q-3 71 -55.5 113.5t-130.5 42.5t-131 -42.5t-56 -113.5h-168zM193 0v1434h266v-1434h-266z" />
    <glyph glyph-name="uni020B" unicode="&#x20b;" horiz-adv-x="591" 
d="M-6 1243q1 134 86.5 214.5t216.5 80.5t216.5 -80.5t86.5 -214.5h-158q0 72 -39 114t-106 42t-106 -42t-39 -114h-158zM168 0v1094h256v-1094h-256z" />
    <glyph glyph-name="uni020C" unicode="&#x20c;" horiz-adv-x="1724" 
d="M569 1550l-219 281h256l164 -281h-201zM954 1550l-221 281h256l166 -281h-201zM862 -20q-219 0 -395.5 95t-276.5 264t-100 378t100 378t276.5 264t395.5 95t395.5 -95t276.5 -263.5t100 -378.5t-100 -378.5t-276.5 -263.5t-395.5 -95zM862 213q217 0 360.5 142.5
t143.5 361.5t-143.5 361.5t-360.5 142.5t-360.5 -142.5t-143.5 -361.5t143.5 -361.5t360.5 -142.5z" />
    <glyph glyph-name="uni020D" unicode="&#x20d;" horiz-adv-x="1320" 
d="M365 1243l-220 281h256l164 -281h-200zM750 1243l-222 281h256l166 -281h-200zM659 -14q-253 0 -417 158t-164 403t164 402t417 157q255 0 419.5 -156.5t164.5 -402.5t-164.5 -403.5t-419.5 -157.5zM659 205q142 0 234 94t92 248t-92 248t-234 94q-140 0 -231.5 -94
t-91.5 -248t91.5 -248t231.5 -94z" />
    <glyph glyph-name="uni020E" unicode="&#x20e;" horiz-adv-x="1724" 
d="M508 1550q6 134 105 214.5t249 80.5t249.5 -80.5t105.5 -214.5h-168q-3 71 -56 113.5t-131 42.5t-130.5 -42.5t-55.5 -113.5h-168zM862 -20q-219 0 -395.5 95t-276.5 264t-100 378t100 378t276.5 264t395.5 95t395.5 -95t276.5 -263.5t100 -378.5t-100 -378.5
t-276.5 -263.5t-395.5 -95zM862 213q217 0 360.5 142.5t143.5 361.5t-143.5 361.5t-360.5 142.5t-360.5 -142.5t-143.5 -361.5t143.5 -361.5t360.5 -142.5z" />
    <glyph glyph-name="uni020F" unicode="&#x20f;" horiz-adv-x="1320" 
d="M303 1243q6 134 105 214.5t249 80.5t249.5 -80.5t105.5 -214.5h-168q-3 71 -56 113.5t-131 42.5t-130.5 -42.5t-55.5 -113.5h-168zM659 -14q-253 0 -417 158t-164 403t164 402t417 157q255 0 419.5 -156.5t164.5 -402.5t-164.5 -403.5t-419.5 -157.5zM659 205
q142 0 234 94t92 248t-92 248t-234 94q-140 0 -231.5 -94t-91.5 -248t91.5 -248t231.5 -94z" />
    <glyph glyph-name="uni0210" unicode="&#x210;" horiz-adv-x="1497" 
d="M672 1550h-201l-219 281h256zM1057 1550h-201l-221 281h256zM1417 0h-287l-292 420q-18 -2 -56 -2h-323v-418h-266v1434h589q283 0 447 -136.5t164 -373.5q0 -162 -79.5 -279t-226.5 -174zM1124 924q0 136 -90.5 210t-263.5 74h-311v-571h311q173 0 263.5 75t90.5 212z
" />
    <glyph glyph-name="uni0211" unicode="&#x211;" horiz-adv-x="860" 
d="M391 1243h-201l-219 281h256zM776 1243h-201l-221 281h256zM412 934q111 172 389 172v-244q-34 6 -60 6q-149 0 -233 -86.5t-84 -251.5v-530h-256v1094h244v-160z" />
    <glyph glyph-name="uni0212" unicode="&#x212;" horiz-adv-x="1497" 
d="M764 1706q-78 0 -130.5 -42.5t-55.5 -113.5h-168q6 134 105 214.5t249 80.5t249 -80.5t105 -214.5h-168q-3 71 -55.5 113.5t-130.5 42.5zM1417 0h-287l-292 420q-18 -2 -56 -2h-323v-418h-266v1434h589q283 0 447 -136.5t164 -373.5q0 -162 -79.5 -279t-226.5 -174z
M1124 924q0 136 -90.5 210t-263.5 74h-311v-571h311q173 0 263.5 75t90.5 212z" />
    <glyph glyph-name="uni0213" unicode="&#x213;" horiz-adv-x="860" 
d="M483 1399q-78 0 -130.5 -42.5t-55.5 -113.5h-168q6 134 105 214.5t249 80.5t249.5 -80.5t105.5 -214.5h-168q-3 71 -56 113.5t-131 42.5zM412 934q111 172 389 172v-244q-34 6 -60 6q-149 0 -233 -86.5t-84 -251.5v-530h-256v1094h244v-160z" />
    <glyph glyph-name="uni0214" unicode="&#x214;" horiz-adv-x="1615" 
d="M518 1550l-219 281h256l164 -281h-201zM903 1550l-221 281h256l166 -281h-201zM809 -20q-297 0 -463 167t-166 478v809h266v-799q0 -422 365 -422q363 0 363 422v799h262v-809q0 -311 -165.5 -478t-461.5 -167z" />
    <glyph glyph-name="uni0215" unicode="&#x215;" horiz-adv-x="1394" 
d="M600 1243h-201l-219 281h256zM985 1243h-201l-221 281h256zM971 1094h256v-1094h-244v139q-61 -74 -153 -113.5t-199 -39.5q-218 0 -344.5 121.5t-126.5 361.5v625h256v-590q0 -147 66 -220t190 -73q137 0 218 85t81 245v553z" />
    <glyph glyph-name="uni0216" unicode="&#x216;" horiz-adv-x="1615" 
d="M457 1550q6 134 105 214.5t249 80.5t249 -80.5t105 -214.5h-168q-3 71 -55.5 113.5t-130.5 42.5t-130.5 -42.5t-55.5 -113.5h-168zM809 -20q-297 0 -463 167t-166 478v809h266v-799q0 -422 365 -422q363 0 363 422v799h262v-809q0 -311 -165.5 -478t-461.5 -167z" />
    <glyph glyph-name="uni0217" unicode="&#x217;" horiz-adv-x="1394" 
d="M692 1399q-78 0 -130.5 -42.5t-55.5 -113.5h-168q6 134 105 214.5t249 80.5t249.5 -80.5t105.5 -214.5h-168q-3 71 -56 113.5t-131 42.5zM971 1094h256v-1094h-244v139q-61 -74 -153 -113.5t-199 -39.5q-218 0 -344.5 121.5t-126.5 361.5v625h256v-590q0 -147 66 -220
t190 -73q137 0 218 85t81 245v553z" />
    <glyph glyph-name="Scommaaccent" unicode="&#x218;" horiz-adv-x="1288" 
d="M367 1038q0 -61 47 -102.5t122 -64.5t165.5 -43t181 -49t165.5 -70.5t122 -118.5t47 -184q0 -87 -36 -163t-106 -135.5t-182.5 -93.5t-255.5 -34q-166 0 -320.5 47.5t-244.5 124.5l92 206q88 -70 215.5 -113.5t257.5 -43.5q160 0 238.5 51t78.5 135q0 49 -29 85.5
t-78.5 59t-113.5 40t-134.5 34t-141 36.5t-134.5 51t-113.5 73t-78.5 108.5t-29 151.5q0 88 36 164.5t105 136t181.5 93.5t255.5 34q131 0 258 -33t219 -94l-84 -207q-192 113 -395 113q-158 0 -234.5 -54t-76.5 -141zM664 -170q56 0 89 -31t33 -78q0 -60 -32 -120l-66 -144
h-125l49 166q-71 21 -71 98q0 48 33.5 78.5t89.5 30.5z" />
    <glyph glyph-name="scommaaccent" unicode="&#x219;" horiz-adv-x="1054" 
d="M326 776q0 -44 37 -71.5t97 -40.5t131.5 -23.5t143.5 -29t132 -49t97 -91t37 -147.5q0 -155 -133 -246.5t-362 -91.5q-134 0 -261 34.5t-202 88.5l98 194q73 -48 176.5 -78t204.5 -30q230 0 230 120q0 37 -29 61.5t-76.5 35.5t-108.5 22t-124 20t-124 31.5t-108.5 54
t-76.5 89t-29 135.5q0 156 130 249t351 93q111 0 224.5 -25.5t185.5 -68.5l-99 -195q-140 82 -313 82q-113 0 -171 -33.5t-58 -89.5zM520 -170q56 0 89.5 -31t33.5 -78q0 -58 -33 -120l-65 -144h-125l49 166q-72 21 -72 98q0 48 33.5 78.5t89.5 30.5z" />
    <glyph glyph-name="uni021A" unicode="&#x21a;" horiz-adv-x="1232" 
d="M8 1434h1217v-226h-475v-1208h-267v1208h-475v226zM616 -170q56 0 89.5 -31t33.5 -78q0 -60 -32 -120l-66 -144h-125l49 166q-71 21 -71 98q0 48 33 78.5t89 30.5z" />
    <glyph glyph-name="uni021B" unicode="&#x21b;" horiz-adv-x="868" 
d="M825 59q-91 -73 -245 -73q-181 0 -279 94t-98 274v527h-180v204h180v250h256v-250h293v-204h-293v-521q0 -79 38.5 -121t112.5 -42q87 0 144 45zM526 -170q56 0 89.5 -31t33.5 -78q0 -58 -33 -120l-65 -144h-125l49 166q-72 21 -72 98q0 48 33.5 78.5t89.5 30.5z" />
    <glyph glyph-name="uni021E" unicode="&#x21e;" horiz-adv-x="1658" 
d="M946 1550h-233l-275 281h211l180 -152l181 152h211zM1200 1434h266v-1434h-266v614h-741v-614h-266v1434h266v-592h741v592z" />
    <glyph glyph-name="uni021F" unicode="&#x21f;" horiz-adv-x="1402" 
d="M414 1669h-234l-274 281h211l180 -152l180 152h211zM788 1106q100 0 182 -29t144 -86.5t96.5 -150t34.5 -213.5v-627h-256v594q0 144 -67.5 216.5t-192.5 72.5q-140 0 -222.5 -85t-82.5 -245v-553h-256v1520h256v-553q130 139 364 139z" />
    <glyph glyph-name="uni022A" unicode="&#x22a;" horiz-adv-x="1724" 
d="M508 1901v143h709v-143h-709zM670 1573q-50 0 -84.5 33.5t-34.5 85.5q0 51 34.5 84.5t84.5 33.5q51 0 84.5 -33.5t33.5 -84.5q0 -52 -33.5 -85.5t-84.5 -33.5zM1057 1573q-50 0 -84.5 33.5t-34.5 85.5q0 51 34.5 84.5t84.5 33.5q48 0 83.5 -34t35.5 -84q0 -51 -35.5 -85
t-83.5 -34zM862 -20q-219 0 -395.5 95t-276.5 264t-100 378t100 378t276.5 264t395.5 95t395.5 -95t276.5 -263.5t100 -378.5t-100 -378.5t-276.5 -263.5t-395.5 -95zM862 213q217 0 360.5 142.5t143.5 361.5t-143.5 361.5t-360.5 142.5t-360.5 -142.5t-143.5 -361.5
t143.5 -361.5t360.5 -142.5z" />
    <glyph glyph-name="uni022B" unicode="&#x22b;" horiz-adv-x="1320" 
d="M303 1593v144h709v-144h-709zM465 1266q-50 0 -84.5 33t-34.5 85q0 51 34.5 85t84.5 34q51 0 85 -34t34 -85q0 -52 -34 -85t-85 -33zM852 1266q-50 0 -84.5 33t-34.5 85q0 51 34.5 85t84.5 34q48 0 83.5 -34.5t35.5 -84.5q0 -51 -35 -84.5t-84 -33.5zM659 -14
q-253 0 -417 158t-164 403t164 402t417 157q255 0 419.5 -156.5t164.5 -402.5t-164.5 -403.5t-419.5 -157.5zM659 205q142 0 234 94t92 248t-92 248t-234 94q-140 0 -231.5 -94t-91.5 -248t91.5 -248t231.5 -94z" />
    <glyph glyph-name="uni022C" unicode="&#x22c;" horiz-adv-x="1724" 
d="M508 1901v143h709v-143h-709zM1012 1552q-60 0 -115 28t-97.5 55.5t-70.5 27.5q-87 0 -90 -98h-139q1 109 59.5 171t157.5 62q45 0 89.5 -17t73 -37t61.5 -37t58 -17q42 0 65 26t26 70h135q-1 -109 -58.5 -171.5t-154.5 -62.5zM862 -20q-219 0 -395.5 95t-276.5 264
t-100 378t100 378t276.5 264t395.5 95t395.5 -95t276.5 -263.5t100 -378.5t-100 -378.5t-276.5 -263.5t-395.5 -95zM862 213q217 0 360.5 142.5t143.5 361.5t-143.5 361.5t-360.5 142.5t-360.5 -142.5t-143.5 -361.5t143.5 -361.5t360.5 -142.5z" />
    <glyph glyph-name="uni022D" unicode="&#x22d;" horiz-adv-x="1320" 
d="M303 1593v144h709v-144h-709zM807 1245q-47 0 -92.5 17.5t-74.5 38t-61 38t-55 17.5q-87 0 -90 -99h-139q1 110 59.5 172t157.5 62q57 0 111.5 -27.5t98 -54.5t73.5 -27q41 0 64 26t26 71h135q-1 -109 -58.5 -171.5t-154.5 -62.5zM659 -14q-253 0 -417 158t-164 403
t164 402t417 157q255 0 419.5 -156.5t164.5 -402.5t-164.5 -403.5t-419.5 -157.5zM659 205q142 0 234 94t92 248t-92 248t-234 94q-140 0 -231.5 -94t-91.5 -248t91.5 -248t231.5 -94z" />
    <glyph glyph-name="uni0230" unicode="&#x230;" horiz-adv-x="1724" 
d="M508 1909v143h709v-143h-709zM862 1571q-53 0 -88 34t-35 89t35 89t88 34t88 -34t35 -89t-35 -89t-88 -34zM862 -20q-219 0 -395.5 95t-276.5 264t-100 378t100 378t276.5 264t395.5 95t395.5 -95t276.5 -263.5t100 -378.5t-100 -378.5t-276.5 -263.5t-395.5 -95z
M862 213q217 0 360.5 142.5t143.5 361.5t-143.5 361.5t-360.5 142.5t-360.5 -142.5t-143.5 -361.5t143.5 -361.5t360.5 -142.5z" />
    <glyph glyph-name="uni0231" unicode="&#x231;" horiz-adv-x="1320" 
d="M303 1602v143h709v-143h-709zM657 1264q-53 0 -87.5 33.5t-34.5 88.5t34.5 89t87.5 34t88 -34t35 -89t-35 -88.5t-88 -33.5zM659 -14q-253 0 -417 158t-164 403t164 402t417 157q255 0 419.5 -156.5t164.5 -402.5t-164.5 -403.5t-419.5 -157.5zM659 205q142 0 234 94
t92 248t-92 248t-234 94q-140 0 -231.5 -94t-91.5 -248t91.5 -248t231.5 -94z" />
    <glyph glyph-name="uni0232" unicode="&#x232;" horiz-adv-x="1353" 
d="M1032 1767v-153h-708v153h708zM1372 1434l-561 -928v-506h-266v502l-563 932h284l420 -699l424 699h262z" />
    <glyph glyph-name="uni0233" unicode="&#x233;" horiz-adv-x="1183" 
d="M920 1460v-153h-709v153h709zM946 1094h246l-512 -1182q-72 -178 -174.5 -251t-247.5 -73q-82 0 -161.5 27t-131.5 74l103 188q79 -76 188 -76q67 0 111.5 35t81.5 117l18 43l-477 1098h266l344 -809z" />
    <glyph glyph-name="uni0237" unicode="&#x237;" horiz-adv-x="604" 
d="M55 -412q-161 0 -245 64l73 190q58 -43 150 -43q147 0 147 174v1121h256v-1114q0 -182 -100 -287t-281 -105z" />
    <glyph glyph-name="uni0259" unicode="&#x259;" horiz-adv-x="1273" 
d="M592 1108q272 0 438 -157t166 -404q0 -244 -160 -401.5t-405 -157.5q-242 0 -397.5 155.5t-155.5 409.5q0 26 4 76h858q-23 121 -117.5 191.5t-236.5 70.5q-181 0 -297 -119l-137 158q149 178 440 178zM631 193q124 0 208 72.5t103 193.5h-620q15 -119 99.5 -192.5
t209.5 -73.5z" />
    <glyph glyph-name="uni0292" unicode="&#x292;" horiz-adv-x="1107" 
d="M627 477q206 -23 314 -136.5t108 -289.5q0 -96 -35 -179t-102.5 -147t-176.5 -100.5t-248 -36.5q-155 0 -295 45t-231 123l94 211q75 -69 187.5 -109t234.5 -40q147 0 227 61t80 172q0 108 -76.5 169t-234.5 61h-133v178l338 413h-662v222h967v-181z" />
    <glyph glyph-name="uni02B9" unicode="&#x2b9;" horiz-adv-x="450" 
d="M131 866l-16 568h221l-19 -568h-186z" />
    <glyph glyph-name="uni02BA" unicode="&#x2ba;" horiz-adv-x="845" 
d="M131 866l-16 568h221l-19 -568h-186zM526 866l-16 568h221l-18 -568h-187z" />
    <glyph glyph-name="uni02BB" unicode="&#x2bb;" horiz-adv-x="573" 
d="M348 1501q96 -41 96 -153q0 -74 -46.5 -121t-116.5 -47q-73 0 -120.5 47t-47.5 121q0 62 45 176l108 291h164z" />
    <glyph glyph-name="uni02BC" unicode="&#x2bc;" horiz-adv-x="368" 
d="M96 899l6 535h170l-39 -535h-137z" />
    <glyph glyph-name="uni02BE" unicode="&#x2be;" horiz-adv-x="1228" 
d="M612 1214v109q57 0 94 35.5t37 89.5q0 56 -37.5 92.5t-93.5 36.5v109q106 0 175 -69t69 -169q0 -98 -69 -166t-175 -68z" />
    <glyph glyph-name="uni02BF" unicode="&#x2bf;" horiz-adv-x="1228" 
d="M612 1214q-103 0 -173 68t-70 166q0 99 70 168.5t173 69.5v-109q-55 0 -92 -36.5t-37 -92.5q0 -54 36.5 -89.5t92.5 -35.5v-109z" />
    <glyph glyph-name="circumflex" unicode="&#x2c6;" horiz-adv-x="1228" 
d="M1006 1243h-211l-181 152l-180 -152h-211l275 281h233z" />
    <glyph glyph-name="caron" unicode="&#x2c7;" horiz-adv-x="1228" 
d="M795 1524h211l-275 -281h-233l-275 281h211l180 -152z" />
    <glyph glyph-name="uni02C8" unicode="&#x2c8;" horiz-adv-x="364" 
d="M96 1038v396h172v-396h-172z" />
    <glyph glyph-name="uni02C9" unicode="&#x2c9;" horiz-adv-x="1228" 
d="M260 1307v153h709v-153h-709z" />
    <glyph glyph-name="uni02CA" unicode="&#x2ca;" horiz-adv-x="1228" 
d="M442 1243l277 281h301l-356 -281h-222z" />
    <glyph glyph-name="uni02CB" unicode="&#x2cb;" horiz-adv-x="1228" 
d="M565 1243l-356 281h301l276 -281h-221z" />
    <glyph glyph-name="uni02CC" unicode="&#x2cc;" horiz-adv-x="368" 
d="M96 -459v398h176v-398h-176z" />
    <glyph glyph-name="breve" unicode="&#x2d8;" horiz-adv-x="1228" 
d="M614 1229q-150 0 -249 80.5t-105 214.5h168q3 -69 55.5 -111.5t130.5 -42.5t131 42.5t56 111.5h168q-6 -134 -105.5 -214.5t-249.5 -80.5z" />
    <glyph glyph-name="dotaccent" unicode="&#x2d9;" horiz-adv-x="1228" 
d="M614 1268q-63 0 -104 41t-41 104t41 104.5t104 41.5t104.5 -41.5t41.5 -104.5t-41.5 -104t-104.5 -41z" />
    <glyph glyph-name="ring" unicode="&#x2da;" horiz-adv-x="1228" 
d="M612 1214q-100 0 -168.5 68t-68.5 166q0 99 68.5 168.5t168.5 69.5q102 0 171 -69.5t69 -168.5q0 -98 -69 -166t-171 -68zM612 1319q57 0 94 36.5t37 92.5q0 57 -37.5 95t-93.5 38q-55 0 -92 -37.5t-37 -95.5q0 -56 36.5 -92.5t92.5 -36.5z" />
    <glyph glyph-name="ogonek" unicode="&#x2db;" horiz-adv-x="1228" 
d="M469 -467q-124 0 -195 60.5t-71 158.5q0 95 73.5 179.5t227.5 144.5l112 -76q-128 -57 -184.5 -111.5t-56.5 -115.5q0 -47 33 -74t88 -27q71 0 125 33l43 -125q-83 -47 -195 -47z" />
    <glyph glyph-name="tilde" unicode="&#x2dc;" horiz-adv-x="1228" 
d="M762 1243q-46 0 -90 21t-72.5 46.5t-60.5 46.5t-56 21q-43 0 -70 -32.5t-30 -90.5h-137q3 126 63 200.5t158 74.5q46 0 90 -21t72 -46.5t60 -46.5t56 -21q43 0 70.5 30.5t30.5 85.5h137q-3 -121 -63 -194.5t-158 -73.5z" />
    <glyph glyph-name="hungarumlaut" unicode="&#x2dd;" horiz-adv-x="1228" 
d="M322 1243l165 281h256l-221 -281h-200zM707 1243l163 281h256l-219 -281h-200z" />
    <glyph glyph-name="gravecomb" unicode="&#x300;" 
d="M-664 1243l-356 281h301l277 -281h-222z" />
    <glyph glyph-name="acutecomb" unicode="&#x301;" 
d="M-786 1243l276 281h301l-356 -281h-221z" />
    <glyph glyph-name="uni0302" unicode="&#x302;" 
d="M-223 1243h-211l-180 152l-181 -152h-211l275 281h233z" />
    <glyph glyph-name="tildecomb" unicode="&#x303;" 
d="M-467 1243q-46 0 -90 21t-72 46.5t-60 46.5t-56 21q-43 0 -70.5 -32.5t-30.5 -90.5h-137q3 126 63 200.5t158 74.5q46 0 90 -21t72.5 -46.5t60.5 -46.5t56 -21q43 0 70 30.5t30 85.5h137q-3 -121 -63 -194.5t-158 -73.5z" />
    <glyph glyph-name="uni0304" unicode="&#x304;" 
d="M-969 1307v153h709v-153h-709z" />
    <glyph glyph-name="uni0306" unicode="&#x306;" 
d="M-614 1229q-150 0 -249.5 80.5t-105.5 214.5h168q3 -69 56 -111.5t131 -42.5t130.5 42.5t55.5 111.5h168q-6 -134 -105 -214.5t-249 -80.5z" />
    <glyph glyph-name="uni0307" unicode="&#x307;" 
d="M-614 1268q-63 0 -104.5 41t-41.5 104t41.5 104.5t104.5 41.5t104 -41.5t41 -104.5t-41 -104t-104 -41z" />
    <glyph glyph-name="uni0308" unicode="&#x308;" 
d="M-813 1266q-53 0 -88 34.5t-35 88.5q0 55 35 89.5t88 34.5t88 -34.5t35 -89.5q0 -54 -35 -88.5t-88 -34.5zM-416 1266q-53 0 -88 34.5t-35 88.5q0 55 35 89.5t88 34.5t88 -34.5t35 -89.5q0 -54 -35 -88.5t-88 -34.5z" />
    <glyph glyph-name="hookabovecomb" unicode="&#x309;" 
d="M-563 1223l-84 94q110 51 110 131q0 40 -29 65t-73 25q-64 0 -123 -39l-55 113q81 63 205 63q99 0 162 -56.5t63 -148.5q0 -166 -176 -247z" />
    <glyph glyph-name="uni030A" unicode="&#x30a;" 
d="M-616 1214q-101 0 -169.5 68.5t-68.5 165.5q0 99 68.5 168.5t169.5 69.5q102 0 170.5 -69.5t68.5 -168.5q0 -98 -68.5 -166t-170.5 -68zM-616 1319q57 0 94 36.5t37 92.5q0 57 -37.5 95t-93.5 38q-55 0 -92 -37.5t-37 -95.5q0 -56 36.5 -92.5t92.5 -36.5z" />
    <glyph glyph-name="uni030B" unicode="&#x30b;" 
d="M-907 1243l166 281h256l-222 -281h-200zM-522 1243l164 281h256l-220 -281h-200z" />
    <glyph glyph-name="uni030C" unicode="&#x30c;" 
d="M-434 1524h211l-275 -281h-233l-275 281h211l181 -152z" />
    <glyph glyph-name="uni030F" unicode="&#x30f;" 
d="M-907 1243l-219 281h256l163 -281h-200zM-522 1243l-221 281h256l165 -281h-200z" />
    <glyph glyph-name="uni0311" unicode="&#x311;" 
d="M-969 1243q6 134 105.5 214.5t249.5 80.5t249 -80.5t105 -214.5h-168q-3 71 -55.5 113.5t-130.5 42.5t-131 -42.5t-56 -113.5h-168z" />
    <glyph glyph-name="uni0312" unicode="&#x312;" 
d="M-555 1436q78 -21 78 -99q0 -49 -35.5 -78.5t-101.5 -29.5q-65 0 -101.5 30.5t-36.5 77.5q0 49 37 117l84 188h142z" />
    <glyph glyph-name="uni031B" unicode="&#x31b;" 
d="M-655 911v183h43q60 0 93.5 36t33.5 95q0 73 -41 127l157 57q62 -78 62 -192q0 -142 -81.5 -224t-225.5 -82h-41z" />
    <glyph glyph-name="dotbelowcomb" unicode="&#x323;" 
d="M-614 -416q-53 0 -88 33t-35 88q0 54 35 89.5t88 35.5t87.5 -35.5t34.5 -89.5q0 -55 -34.5 -88t-87.5 -33z" />
    <glyph glyph-name="uni0324" unicode="&#x324;" 
d="M-801 -408q-50 0 -83.5 33.5t-33.5 85.5q0 51 33.5 85t83.5 34t85.5 -34.5t35.5 -84.5q0 -52 -35.5 -85.5t-85.5 -33.5zM-428 -408q-50 0 -84.5 33.5t-34.5 85.5q0 51 34.5 85t84.5 34t84.5 -34t34.5 -85q0 -52 -34.5 -85.5t-84.5 -33.5z" />
    <glyph glyph-name="uni0326" unicode="&#x326;" 
d="M-614 -170q56 0 89 -31t33 -78q0 -60 -32 -120l-66 -144h-125l49 166q-71 21 -71 98q0 48 33.5 78.5t89.5 30.5z" />
    <glyph glyph-name="uni0327" unicode="&#x327;" 
d="M-674 -467q-112 0 -188 43l47 121q62 -33 139 -33q109 0 109 74q0 67 -109 67h-63l55 209h139l-28 -114q88 -10 133 -56.5t45 -115.5q0 -89 -76.5 -142t-202.5 -53z" />
    <glyph glyph-name="uni0328" unicode="&#x328;" 
d="M-760 -467q-124 0 -195 60.5t-71 158.5q0 95 73.5 179.5t227.5 144.5l113 -76q-128 -58 -185 -112t-57 -115q0 -47 33 -74t88 -27q71 0 125 33l43 -125q-83 -47 -195 -47z" />
    <glyph glyph-name="uni032E" unicode="&#x32e;" 
d="M-614 -436q-149 0 -249 76.5t-106 201.5h160q0 -66 55 -105.5t140 -39.5t139.5 39.5t54.5 105.5h160q-6 -125 -105.5 -201.5t-248.5 -76.5z" />
    <glyph glyph-name="uni0331" unicode="&#x331;" 
d="M-969 -365v152h709v-152h-709z" />
    <glyph glyph-name="uni0335" unicode="&#x335;" 
d="M-1028 811v168h827v-168h-827z" />
    <glyph glyph-name="uni0336" unicode="&#x336;" 
d="M-1763 795v196h1677v-196h-1677z" />
    <glyph glyph-name="uni0337" unicode="&#x337;" 
d="M-729 498l-107 143l603 457l104 -146z" />
    <glyph glyph-name="uni0338" unicode="&#x338;" 
d="M-1161 -143l901 1376h143l-901 -1376h-143z" />
    <glyph glyph-name="uni0394" unicode="&#x394;" horiz-adv-x="1533" 
d="M897 1434l647 -1434h-1554l645 1434h262zM764 1171l-410 -946h817z" />
    <glyph glyph-name="uni03A9" unicode="&#x3a9;" horiz-adv-x="1830" 
d="M18 0v225h355q-108 96 -167 229.5t-59 293.5q0 205 101 367t276 250.5t391 88.5t391 -88.5t276 -250.5t101 -367q0 -159 -59 -293t-166 -230h354v-225h-729v209q161 82 247.5 218.5t86.5 301.5q0 220 -140.5 356t-361.5 136q-222 0 -361.5 -136t-139.5 -356
q0 -166 86.5 -302.5t247.5 -217.5v-209h-730z" />
    <glyph glyph-name="uni03BC" unicode="&#x3bc;" horiz-adv-x="1404" 
d="M981 1094h256v-1094h-240v145q-54 -82 -137 -120.5t-176 -38.5q-167 0 -260 96v-479h-256v1491h256v-590q0 -147 66.5 -220t191.5 -73q137 0 218 85t81 245v553z" />
    <glyph glyph-name="pi" unicode="&#x3c0;" horiz-adv-x="1486" 
d="M1466 1094v-203h-280v-891h-246v891h-246l-100 -891h-246l101 891h-66q-186 0 -186 -154q0 -70 55 -153l-191 -60q-40 51 -63 121t-23 133q0 137 105.5 226.5t271.5 89.5h1114z" />
    <glyph glyph-name="uni0400" unicode="&#x400;" horiz-adv-x="1372" 
d="M899 1550h-221l-356 281h301zM467 223h809v-223h-1075v1434h1046v-224h-780v-372h692v-220h-692v-395z" />
    <glyph glyph-name="uni0401" unicode="&#x401;" horiz-adv-x="1372" 
d="M528 1573q-53 0 -87.5 34.5t-34.5 88.5q0 55 34.5 90t87.5 35t88 -35t35 -90q0 -54 -35 -88.5t-88 -34.5zM926 1573q-53 0 -88 34.5t-35 88.5q0 55 35 90t88 35t88 -35t35 -90q0 -54 -35 -88.5t-88 -34.5zM467 223h809v-223h-1075v1434h1046v-224h-780v-372h692v-220
h-692v-395z" />
    <glyph glyph-name="uni0402" unicode="&#x402;" horiz-adv-x="1722" 
d="M770 819q204 64 377 64q235 0 371.5 -117t136.5 -334q0 -113 -39 -200t-107.5 -139.5t-155 -78.5t-188.5 -26q-94 0 -170 16l29 217q49 -14 111 -14q69 0 125 21.5t93.5 72.5t37.5 125q0 114 -81 175t-216 61q-147 0 -324 -74v-588h-264v1208h-475v226h1265v-226h-526
v-389z" />
    <glyph glyph-name="uni0403" unicode="&#x403;" horiz-adv-x="1198" 
d="M1077 1831l-356 -281h-221l276 281h301zM1176 1434l-2 -226h-711l2 -1208h-262v1434h973z" />
    <glyph glyph-name="uni0404" unicode="&#x404;" horiz-adv-x="1456" 
d="M842 213q238 0 395 170l168 -164q-98 -117 -247 -178t-331 -61q-208 0 -375.5 94.5t-261.5 263t-94 379.5t94 379.5t261.5 263t375.5 94.5q182 0 331 -61.5t247 -178.5l-168 -163q-157 170 -395 170q-183 0 -311.5 -113t-157.5 -297h641v-211h-637q34 -174 160.5 -280.5
t304.5 -106.5z" />
    <glyph glyph-name="uni0405" unicode="&#x405;" horiz-adv-x="1320" 
d="M655 -20q-166 0 -320.5 47.5t-244.5 124.5l92 206q88 -70 215.5 -113.5t257.5 -43.5q160 0 239 51t79 135q0 49 -29 85.5t-78.5 59t-113.5 40t-134.5 34t-141 36.5t-134.5 51t-113.5 73t-78.5 108.5t-29 151.5q0 88 35.5 164.5t105 136t181.5 93.5t255 34
q131 0 258.5 -33t219.5 -94l-84 -207q-192 113 -396 113q-158 0 -234.5 -54t-76.5 -141q0 -61 47 -102.5t122 -64.5t165.5 -43t181 -49t165.5 -70.5t122 -118.5t47 -184q0 -87 -36 -163t-106 -135.5t-182.5 -93.5t-255.5 -34z" />
    <glyph glyph-name="uni0406" unicode="&#x406;" horiz-adv-x="667" 
d="M203 0v1434h262v-1434h-262z" />
    <glyph glyph-name="uni0407" unicode="&#x407;" horiz-adv-x="653" 
d="M127 1573q-52 0 -87.5 35t-35.5 88q0 55 35.5 90t87.5 35q53 0 89 -35t36 -90q0 -53 -36 -88t-89 -35zM524 1573q-52 0 -87.5 35t-35.5 88q0 55 35.5 90t87.5 35q53 0 89 -35t36 -90q0 -53 -36 -88t-89 -35zM193 0v1434h266v-1434h-266z" />
    <glyph glyph-name="uni0408" unicode="&#x408;" horiz-adv-x="1134" 
d="M473 -20q-136 0 -252.5 53.5t-189.5 152.5l151 183q121 -164 285 -164q223 0 223 264v741h-510v224h776v-951q0 -252 -122.5 -377.5t-360.5 -125.5z" />
    <glyph glyph-name="uni0409" unicode="&#x409;" horiz-adv-x="2428" 
d="M1823 948q259 0 396.5 -116t137.5 -343q0 -239 -151 -364t-426 -125h-617v1208h-565l-12 -358q-6 -178 -20.5 -308.5t-43.5 -240.5t-74.5 -178.5t-113.5 -105.5t-160 -37q-53 0 -145 20l18 231q27 -8 62 -8q64 0 108.5 38.5t72 120t41 191t19.5 267.5l21 594h1054v-486
h398zM1767 205q155 0 239.5 71.5t84.5 208.5q0 260 -324 260h-342v-540h342z" />
    <glyph glyph-name="uni040A" unicode="&#x40a;" horiz-adv-x="2408" 
d="M1837 887q240 0 373 -112.5t133 -317.5q0 -216 -143 -336.5t-396 -120.5h-622v653h-717v-653h-262v1434h262v-555h717v555h262v-547h393zM1778 205q140 0 217.5 63t77.5 178t-76.5 175.5t-218.5 60.5h-334v-477h334z" />
    <glyph glyph-name="uni040B" unicode="&#x40b;" horiz-adv-x="1738" 
d="M1143 868q239 0 373.5 -124.5t134.5 -370.5v-373h-262v338q0 146 -81.5 222.5t-224.5 76.5q-135 0 -317 -78v-559h-264v1208h-473v226h1253v-226h-516v-409q201 69 377 69z" />
    <glyph glyph-name="uni040C" unicode="&#x40c;" horiz-adv-x="1478" 
d="M1157 1831l-356 -281h-221l276 281h301zM1149 0l-420 604h-266v-604h-262v1434h262v-600h274l412 600h283l-490 -695l508 -739h-301z" />
    <glyph glyph-name="uni040D" unicode="&#x40d;" horiz-adv-x="1683" 
d="M791 1550l-357 281h301l277 -281h-221zM203 0v1434h262v-1018l770 1018h248v-1434h-262v1016l-770 -1016h-248z" />
    <glyph glyph-name="uni040E" unicode="&#x40e;" horiz-adv-x="1445" 
d="M715 1530q-184 0 -277.5 76.5t-95.5 220.5h186q2 -77 50 -117.5t137 -40.5q88 0 137.5 41t52.5 117h185q-2 -144 -97 -220.5t-278 -76.5zM1169 1434h263l-623 -1158q-82 -154 -195 -230.5t-247 -76.5q-106 0 -211 45l65 209q83 -26 139 -26q130 0 213 133l23 35
l-571 1069h284l424 -842z" />
    <glyph glyph-name="uni040F" unicode="&#x40f;" horiz-adv-x="1652" 
d="M1452 1434v-1434h-504v-315h-246v315h-499v1434h262v-1209h723v1209h264z" />
    <glyph glyph-name="uni0410" unicode="&#x410;" horiz-adv-x="1591" 
d="M1294 0l-143 332h-717l-141 -332h-275l646 1434h262l647 -1434h-279zM524 541h539l-270 626z" />
    <glyph glyph-name="uni0411" unicode="&#x411;" horiz-adv-x="1505" 
d="M203 0v1434h1116v-220h-854v-352h424q257 0 391.5 -107.5t134.5 -310.5q0 -213 -147.5 -328.5t-419.5 -115.5h-645zM465 205h369q154 0 233.5 58.5t79.5 172.5q0 221 -313 221h-369v-452z" />
    <glyph glyph-name="uni0412" unicode="&#x412;" horiz-adv-x="1527" 
d="M1145 745q136 -37 208 -125.5t72 -222.5q0 -188 -139 -292.5t-403 -104.5h-680v1434h641q241 0 376.5 -96t135.5 -273q0 -114 -55 -195.5t-156 -124.5zM465 1229v-408h356q129 0 196.5 51.5t67.5 151.5q0 101 -67.5 153t-196.5 52h-356zM874 205q283 0 283 213
q0 209 -283 209h-409v-422h409z" />
    <glyph glyph-name="uni0413" unicode="&#x413;" horiz-adv-x="1198" 
d="M1176 1434l-2 -226h-711l2 -1208h-262v1434h973z" />
    <glyph glyph-name="uni0414" unicode="&#x414;" horiz-adv-x="1671" 
d="M1415 225h207v-530h-246v305h-1100v-305h-247l2 530h61q57 2 100 42t70.5 104.5t45.5 164t26.5 203.5t13.5 240l17 455h1050v-1209zM582 954q-10 -279 -44.5 -464t-111.5 -265h727v983h-561z" />
    <glyph glyph-name="uni0415" unicode="&#x415;" horiz-adv-x="1372" 
d="M467 223h809v-223h-1075v1434h1046v-224h-780v-372h692v-220h-692v-395z" />
    <glyph glyph-name="uni0416" unicode="&#x416;" horiz-adv-x="2154" 
d="M1815 0l-361 604h-246v-604h-260v604h-246l-362 -604h-307l450 748l-420 686h283l350 -600h252v600h260v-600h248l352 600h283l-418 -689l449 -745h-307z" />
    <glyph glyph-name="uni0417" unicode="&#x417;" horiz-adv-x="1329" 
d="M954 748q128 -40 201.5 -131.5t73.5 -215.5q0 -97 -50 -177.5t-134.5 -133t-195.5 -81.5t-235 -29q-145 0 -289 40t-266 119l86 195q94 -64 209.5 -97.5t227.5 -33.5q161 0 268.5 63t107.5 174q0 95 -77 144t-215 49h-334v209h313q120 0 187 48.5t67 133.5
q0 99 -91.5 155t-232.5 56q-207 0 -391 -109l-84 215q221 119 482 119q159 0 291.5 -47t214 -140t81.5 -216q0 -106 -57 -186.5t-158 -122.5z" />
    <glyph glyph-name="uni0418" unicode="&#x418;" horiz-adv-x="1683" 
d="M203 0v1434h262v-1018l770 1018h248v-1434h-262v1016l-770 -1016h-248z" />
    <glyph glyph-name="uni0419" unicode="&#x419;" horiz-adv-x="1683" 
d="M840 1530q-184 0 -277.5 76.5t-95.5 220.5h186q2 -77 50 -117.5t137 -40.5q88 0 137.5 41t52.5 117h184q-2 -144 -96.5 -220.5t-277.5 -76.5zM203 0v1434h262v-1018l770 1018h248v-1434h-262v1016l-770 -1016h-248z" />
    <glyph glyph-name="uni041A" unicode="&#x41a;" horiz-adv-x="1478" 
d="M1149 0l-420 604h-266v-604h-262v1434h262v-600h274l412 600h283l-490 -695l508 -739h-301z" />
    <glyph glyph-name="uni041B" unicode="&#x41b;" horiz-adv-x="1628" 
d="M371 1434h1054v-1434h-262v1208h-565l-12 -358q-6 -178 -20.5 -308.5t-43.5 -240.5t-74.5 -178.5t-113.5 -105.5t-160 -37q-53 0 -145 20l18 231q27 -8 62 -8q64 0 108.5 38.5t72 120t41 191t19.5 267.5z" />
    <glyph glyph-name="uni041C" unicode="&#x41c;" horiz-adv-x="1972" 
d="M1772 0h-254l-2 950l-472 -786h-118l-471 774v-938h-252v1434h219l567 -949l561 949h217z" />
    <glyph glyph-name="uni041D" unicode="&#x41d;" horiz-adv-x="1675" 
d="M1208 1434h267v-1434h-267v614h-741v-614h-266v1434h266v-592h741v592z" />
    <glyph glyph-name="uni041E" unicode="&#x41e;" horiz-adv-x="1730" 
d="M864 -20q-219 0 -395.5 95t-276.5 264t-100 378t100 378t276.5 264t395.5 95t395.5 -95t276.5 -263.5t100 -378.5t-100 -378.5t-276.5 -263.5t-395.5 -95zM864 213q217 0 360.5 142.5t143.5 361.5t-143.5 361.5t-360.5 142.5t-360.5 -142.5t-143.5 -361.5t143.5 -361.5
t360.5 -142.5z" />
    <glyph glyph-name="uni041F" unicode="&#x41f;" horiz-adv-x="1673" 
d="M203 1434h1267v-1434h-262v1208h-743v-1208h-262v1434z" />
    <glyph glyph-name="uni0420" unicode="&#x420;" horiz-adv-x="1472" 
d="M791 1434q283 0 446.5 -136.5t163.5 -373.5q0 -236 -163.5 -373t-446.5 -137h-324v-414h-266v1434h590zM778 639q173 0 264 74.5t91 210.5t-91 210t-264 74h-311v-569h311z" />
    <glyph glyph-name="uni0421" unicode="&#x421;" horiz-adv-x="1476" 
d="M860 -20q-217 0 -392 94.5t-274.5 263t-99.5 379.5t99.5 379.5t275 263t393.5 94.5q175 0 322 -61.5t246 -178.5l-173 -161q-155 168 -383 168q-223 0 -367.5 -141.5t-144.5 -362.5t144.5 -362.5t367.5 -141.5q229 0 383 170l173 -164q-99 -117 -245.5 -178t-324.5 -61z
" />
    <glyph glyph-name="uni0422" unicode="&#x422;" horiz-adv-x="1269" 
d="M1241 1434v-226h-475v-1208h-264v1208h-473v226h1212z" />
    <glyph glyph-name="uni0423" unicode="&#x423;" horiz-adv-x="1445" 
d="M1169 1434h263l-623 -1158q-82 -154 -195 -230.5t-247 -76.5q-106 0 -211 45l65 209q83 -26 139 -26q130 0 213 133l23 35l-571 1069h284l424 -842z" />
    <glyph glyph-name="uni0424" unicode="&#x424;" horiz-adv-x="1918" 
d="M1839 719q0 -283 -197 -446.5t-559 -178.5v-151h-245v151q-363 19 -560.5 181t-197.5 444q0 283 197.5 445.5t560.5 181.5v145h245v-145q363 -19 559.5 -182t196.5 -445zM1083 303q247 19 373.5 124.5t126.5 293.5t-127.5 292.5t-372.5 121.5v-832zM340 719
q0 -186 128.5 -290.5t369.5 -125.5v832q-498 -38 -498 -416z" />
    <glyph glyph-name="uni0425" unicode="&#x425;" horiz-adv-x="1417" 
d="M59 1434h308l338 -480l337 480h312l-482 -689l521 -745h-316l-372 522l-371 -522h-307l518 735z" />
    <glyph glyph-name="uni0426" unicode="&#x426;" horiz-adv-x="1708" 
d="M1452 225h213v-540h-246v315h-1216v1434h262v-1209h723v1209h264v-1209z" />
    <glyph glyph-name="uni0427" unicode="&#x427;" horiz-adv-x="1519" 
d="M1055 1434h264v-1434h-264v541q-204 -76 -385 -76q-276 0 -424 132.5t-148 379.5v457h264v-428q0 -152 87.5 -232t252.5 -80q185 0 353 76v664z" />
    <glyph glyph-name="uni0428" unicode="&#x428;" horiz-adv-x="2246" 
d="M1782 1434h262v-1434h-1841v1434h262v-1209h528v1209h262v-1209h527v1209z" />
    <glyph glyph-name="uni0429" unicode="&#x429;" horiz-adv-x="2306" 
d="M2044 225h207v-530h-246v305h-1802v1434h262v-1209h528v1209h262v-1209h527v1209h262v-1209z" />
    <glyph glyph-name="uni042A" unicode="&#x42a;" horiz-adv-x="1712" 
d="M1108 948q258 0 396 -116.5t138 -342.5q0 -239 -150.5 -364t-428.5 -125h-614v1208h-420v226h682v-486h397zM1053 205q155 0 238 71.5t83 208.5q0 260 -321 260h-342v-540h342z" />
    <glyph glyph-name="uni042B" unicode="&#x42b;" horiz-adv-x="2068" 
d="M862 948q259 0 397 -116t138 -343q0 -239 -151.5 -364t-426.5 -125h-616v1434h262v-486h397zM1604 0v1434h262v-1434h-262zM807 205q155 0 239 71.5t84 208.5q0 260 -323 260h-342v-540h342z" />
    <glyph glyph-name="uni042C" unicode="&#x42c;" horiz-adv-x="1468" 
d="M862 948q259 0 397 -116t138 -343q0 -239 -151.5 -364t-426.5 -125h-616v1434h262v-486h397zM807 205q155 0 239 71.5t84 208.5q0 260 -323 260h-342v-540h342z" />
    <glyph glyph-name="uni042D" unicode="&#x42d;" horiz-adv-x="1454" 
d="M627 1454q208 0 375.5 -94.5t261.5 -263t94 -379.5t-94 -379.5t-261.5 -263t-375.5 -94.5q-182 0 -331 61t-247 178l168 164q157 -170 395 -170q183 0 311.5 113t157.5 297h-641v211h637q-34 174 -160.5 280.5t-304.5 106.5q-238 0 -395 -170l-168 163q98 117 247 178.5
t331 61.5z" />
    <glyph glyph-name="uni042E" unicode="&#x42e;" horiz-adv-x="2265" 
d="M1427 1454q158 0 295.5 -55.5t235.5 -152.5t154.5 -234.5t56.5 -294.5t-56.5 -294.5t-154.5 -234.5t-235.5 -152.5t-295.5 -55.5q-291 0 -495.5 175t-241.5 453h-225v-608h-262v1434h262v-588h229q43 270 245.5 439t487.5 169zM1427 213q203 0 338.5 141t135.5 363
t-135.5 363t-338.5 141q-202 0 -337.5 -141t-135.5 -363t135.5 -363t337.5 -141z" />
    <glyph glyph-name="uni042F" unicode="&#x42f;" horiz-adv-x="1499" 
d="M700 1434h596v-1434h-262v399h-354h-29l-266 -399h-281l308 442q-150 56 -231 175t-81 290q0 247 162 387t438 140zM709 1208q-164 0 -251 -75t-87 -222q0 -142 83.5 -218.5t243.5 -76.5h336v592h-325z" />
    <glyph glyph-name="uni0430" unicode="&#x430;" horiz-adv-x="1222" 
d="M580 1106q240 0 368.5 -116t128.5 -349v-641h-241v133q-95 -147 -344 -147q-185 0 -296.5 91.5t-111.5 235.5q0 71 25 128.5t77.5 102.5t142 70t210.5 25h282v16q0 114 -68.5 176t-203.5 62q-93 0 -182 -29t-150 -80l-100 187q86 66 207 100.5t256 34.5zM545 172
q97 0 171 43.5t105 126.5v127h-264q-221 0 -221 -145q0 -70 56 -111t153 -41z" />
    <glyph glyph-name="uni0431" unicode="&#x431;" horiz-adv-x="1366" 
d="M764 1040q234 0 380 -146t146 -378q0 -240 -162 -388t-421 -148q-284 0 -440 188t-156 543q0 330 141 522.5t432 253.5l508 108l37 -229l-461 -94q-199 -41 -297 -139.5t-115 -276.5q72 88 177.5 136t230.5 48zM713 186q140 0 227.5 91t87.5 233t-86.5 227.5t-228.5 85.5
q-143 0 -231.5 -85.5t-88.5 -227.5q0 -143 89.5 -233.5t230.5 -90.5z" />
    <glyph glyph-name="uni0432" unicode="&#x432;" horiz-adv-x="1267" 
d="M965 569q202 -61 202 -262q0 -147 -110 -227t-328 -80h-557v1094h535q200 0 313 -74.5t113 -208.5q0 -83 -44 -145.5t-124 -96.5zM416 907v-270h268q199 0 199 137q0 133 -199 133h-268zM709 186q211 0 211 138q0 143 -203 143h-301v-281h293z" />
    <glyph glyph-name="uni0433" unicode="&#x433;" horiz-adv-x="1026" 
d="M1012 1094v-217h-584v-877h-256v1094h840z" />
    <glyph glyph-name="uni0434" unicode="&#x434;" horiz-adv-x="1396" 
d="M1178 217h161v-461h-239v244h-844v-244h-238v461h52q37 1 66.5 20.5t49 56.5t33.5 79.5t22.5 104t13 115t7.5 126.5l14 375h902v-877zM496 700q-7 -187 -30 -306.5t-83 -176.5h539v660h-420z" />
    <glyph glyph-name="uni0435" unicode="&#x435;" horiz-adv-x="1304" 
d="M1196 541q0 -26 -4 -76h-858q23 -121 117.5 -191.5t236.5 -70.5q181 0 297 119l137 -158q-149 -178 -440 -178q-272 0 -438 157t-166 404q0 244 160 401.5t405 157.5q242 0 397.5 -155.5t155.5 -409.5zM643 901q-124 0 -208 -72.5t-103 -193.5h620q-15 119 -99.5 192.5
t-209.5 73.5z" />
    <glyph glyph-name="uni0436" unicode="&#x436;" horiz-adv-x="1800" 
d="M1477 0l-267 438h-184v-438h-254v438h-184l-266 -438h-304l359 565l-332 529h272l267 -443h188v443h254v-443h186l269 443h272l-332 -529l361 -565h-305z" />
    <glyph glyph-name="uni0437" unicode="&#x437;" horiz-adv-x="1132" 
d="M825 569q102 -30 158.5 -93.5t56.5 -153.5q0 -151 -147 -245.5t-377 -94.5q-265 0 -467 114l74 191q169 -94 381 -94q128 0 201 39.5t73 109.5q0 64 -56 98.5t-159 34.5h-213v172h193q97 0 151 32.5t54 92.5t-65.5 94.5t-180.5 34.5q-163 0 -346 -80l-66 189
q214 100 434 100q212 0 349 -83.5t137 -217.5q0 -79 -49.5 -142.5t-135.5 -97.5z" />
    <glyph glyph-name="uni0438" unicode="&#x438;" horiz-adv-x="1437" 
d="M172 0v1094h256v-721l604 721h234v-1094h-256v721l-602 -721h-236z" />
    <glyph glyph-name="uni0439" unicode="&#x439;" horiz-adv-x="1437" 
d="M702 1223q-165 0 -253 76.5t-89 224.5h170q2 -74 46.5 -117t123.5 -43q78 0 124 43t48 117h175q-3 -148 -91.5 -224.5t-253.5 -76.5zM172 0v1094h256v-721l604 721h234v-1094h-256v721l-602 -721h-236z" />
    <glyph glyph-name="uni043A" unicode="&#x43a;" horiz-adv-x="1265" 
d="M956 0l-329 438h-199v-438h-256v1094h256v-443h205l323 443h275l-397 -527l423 -567h-301z" />
    <glyph glyph-name="uni043B" unicode="&#x43b;" horiz-adv-x="1335" 
d="M279 1094h884v-1094h-256v877h-409l-11 -218q-5 -105 -13 -186t-23.5 -162t-40 -138t-59.5 -102.5t-84.5 -68t-112.5 -22.5q-59 0 -142 22l13 215q27 -6 49 -6q39 0 69 16.5t48.5 48.5t31 70.5t19.5 91.5t10.5 101t6.5 109q1 16 1 24z" />
    <glyph glyph-name="uni043C" unicode="&#x43c;" horiz-adv-x="1650" 
d="M1479 0h-232v725l-368 -610h-111l-362 612v-727h-234v1094h268l389 -684l408 684h240z" />
    <glyph glyph-name="uni043D" unicode="&#x43d;" horiz-adv-x="1406" 
d="M172 0v1094h256v-445h551v445h256v-1094h-256v432h-551v-432h-256z" />
    <glyph glyph-name="uni043E" unicode="&#x43e;" horiz-adv-x="1323" 
d="M659 -14q-253 0 -417 158t-164 403t164 402t417 157q255 0 419.5 -156.5t164.5 -402.5t-164.5 -403.5t-419.5 -157.5zM659 205q142 0 234 94t92 248t-92 248t-234 94q-140 0 -231.5 -94t-91.5 -248t91.5 -248t231.5 -94z" />
    <glyph glyph-name="uni043F" unicode="&#x43f;" horiz-adv-x="1394" 
d="M172 1094h1049v-1094h-254v877h-539v-877h-256v1094z" />
    <glyph glyph-name="uni0440" unicode="&#x440;" horiz-adv-x="1415" 
d="M778 1106q159 0 285 -68.5t198 -196.5t72 -294q0 -252 -156.5 -406.5t-398.5 -154.5q-221 0 -350 147v-530h-256v1491h244v-144q129 156 362 156zM750 205q140 0 231.5 94t91.5 248t-91.5 248t-231.5 94q-141 0 -233.5 -94t-92.5 -248t92.5 -248t233.5 -94z" />
    <glyph glyph-name="uni0441" unicode="&#x441;" horiz-adv-x="1189" 
d="M670 -14q-260 0 -426 157.5t-166 403.5t166 402.5t426 156.5q161 0 283 -65.5t184 -188.5l-197 -115q-96 152 -272 152q-144 0 -238 -93.5t-94 -248.5q0 -156 94 -249t238 -93q176 0 272 151l197 -114q-63 -123 -185 -189.5t-282 -66.5z" />
    <glyph glyph-name="uni0442" unicode="&#x442;" horiz-adv-x="1052" 
d="M1038 1094v-217h-383v-877h-256v877h-385v217h1024z" />
    <glyph glyph-name="uni0443" unicode="&#x443;" horiz-adv-x="1210" 
d="M958 1094h246l-512 -1182q-72 -178 -174.5 -251t-247.5 -73q-82 0 -161.5 27t-131.5 74l103 188q79 -76 188 -76q67 0 111.5 35t81.5 117l18 43l-477 1098h266l344 -809z" />
    <glyph glyph-name="uni0444" unicode="&#x444;" horiz-adv-x="1693" 
d="M1618 549q0 -255 -169 -400t-482 -165v-381h-242v379q-313 20 -481 165.5t-168 401.5q0 253 167.5 396t481.5 163v412h242v-412q313 -20 482 -163.5t169 -395.5zM328 549q0 -158 97.5 -245.5t299.5 -106.5v694q-203 -17 -300 -102.5t-97 -239.5zM967 197q401 37 401 352
q0 156 -98.5 240.5t-302.5 101.5v-694z" />
    <glyph glyph-name="uni0445" unicode="&#x445;" horiz-adv-x="1155" 
d="M1145 0h-289l-281 379l-282 -379h-283l426 555l-407 539h284l269 -359l268 359h276l-409 -535z" />
    <glyph glyph-name="uni0446" unicode="&#x446;" horiz-adv-x="1427" 
d="M1206 217h166v-469h-239v252h-961v1094h256v-877h522v877h256v-877z" />
    <glyph glyph-name="uni0447" unicode="&#x447;" horiz-adv-x="1271" 
d="M844 1094h256v-1094h-256v424q-158 -76 -330 -76q-212 0 -324 97.5t-112 297.5v351h256v-334q0 -207 235 -207q144 0 275 61v480z" />
    <glyph glyph-name="uni0448" unicode="&#x448;" horiz-adv-x="1955" 
d="M1528 1094h256v-1094h-1612v1094h256v-877h424v877h256v-877h420v877z" />
    <glyph glyph-name="uni0449" unicode="&#x449;" horiz-adv-x="1955" 
d="M1784 217h158v-442h-240v225h-1530v1094h256v-877h424v877h256v-877h420v877h256v-877z" />
    <glyph glyph-name="uni044A" unicode="&#x44a;" horiz-adv-x="1351" 
d="M872 735q205 0 315.5 -95t110.5 -265q0 -179 -122.5 -277t-344.5 -98h-493v877h-324v217h580v-359h278zM819 188q108 0 163.5 49.5t55.5 143.5q0 176 -219 176h-225v-369h225z" />
    <glyph glyph-name="uni044B" unicode="&#x44b;" horiz-adv-x="1703" 
d="M705 733q209 0 319.5 -94t110.5 -266q0 -180 -121.5 -278t-345.5 -97l-496 2v1094h256v-359zM1276 0v1094h256v-1094h-256zM645 186q113 -2 172.5 47t59.5 144q0 92 -58 135t-174 45l-217 2v-371z" />
    <glyph glyph-name="uni044C" unicode="&#x44c;" horiz-adv-x="1206" 
d="M721 733q209 0 320.5 -94t111.5 -266q0 -180 -122.5 -278t-346.5 -97l-512 2v1094h256v-359zM662 186q113 -2 172 47t59 144q0 92 -57.5 135t-173.5 45l-234 2v-371z" />
    <glyph glyph-name="uni044D" unicode="&#x44d;" horiz-adv-x="1189" 
d="M512 1110q172 0 309.5 -72t215 -200.5t77.5 -290.5t-77.5 -291t-215 -201.5t-309.5 -72.5q-304 0 -475 190l147 143q129 -129 318 -129q140 0 239 75.5t127 199.5h-506v184h504q-31 120 -128.5 191t-235.5 71q-190 0 -318 -131l-147 144q169 190 475 190z" />
    <glyph glyph-name="uni044E" unicode="&#x44e;" horiz-adv-x="1820" 
d="M1171 1106q249 0 409.5 -156.5t160.5 -402.5q0 -245 -161 -403t-409 -158q-218 0 -371 124.5t-188 327.5h-184v-438h-256v1094h256v-424h188q38 197 190 316.5t365 119.5zM1171 203q136 0 226 94.5t90 249.5t-89.5 248.5t-226.5 93.5q-136 0 -224.5 -93.5t-88.5 -248.5
q0 -156 88.5 -250t224.5 -94z" />
    <glyph glyph-name="uni044F" unicode="&#x44f;" horiz-adv-x="1267" 
d="M594 1094h502v-1094h-230v330h-288l-224 -330h-274l258 365q-118 40 -181 125t-63 210q0 189 134 291.5t366 102.5zM602 879q-248 0 -248 -187q0 -184 240 -184h272v371h-264z" />
    <glyph glyph-name="uni0450" unicode="&#x450;" horiz-adv-x="1304" 
d="M809 1243h-221l-357 281h301zM1196 541q0 -26 -4 -76h-858q23 -121 117.5 -191.5t236.5 -70.5q181 0 297 119l137 -158q-149 -178 -440 -178q-272 0 -438 157t-166 404q0 244 160 401.5t405 157.5q242 0 397.5 -155.5t155.5 -409.5zM643 901q-124 0 -208 -72.5
t-103 -193.5h620q-15 119 -99.5 192.5t-209.5 73.5z" />
    <glyph glyph-name="uni0451" unicode="&#x451;" horiz-adv-x="1304" 
d="M438 1266q-53 0 -88 34.5t-35 88.5q0 55 35 89.5t88 34.5t88 -34.5t35 -89.5q0 -54 -35 -88.5t-88 -34.5zM836 1266q-53 0 -88 34.5t-35 88.5q0 55 35 89.5t88 34.5t87.5 -34.5t34.5 -89.5q0 -54 -34.5 -88.5t-87.5 -34.5zM1196 541q0 -26 -4 -76h-858
q23 -121 117.5 -191.5t236.5 -70.5q181 0 297 119l137 -158q-149 -178 -440 -178q-272 0 -438 157t-166 404q0 244 160 401.5t405 157.5q242 0 397.5 -155.5t155.5 -409.5zM643 901q-124 0 -208 -72.5t-103 -193.5h620q-15 119 -99.5 192.5t-209.5 73.5z" />
    <glyph glyph-name="uni0452" unicode="&#x452;" horiz-adv-x="1392" 
d="M793 1106q206 0 331 -120.5t125 -358.5v-647q0 -182 -99.5 -287t-281.5 -105q-161 0 -245 64l75 190q55 -43 150 -43q70 0 107.5 43.5t37.5 130.5v621q0 144 -67.5 216.5t-192.5 72.5q-140 0 -222.5 -85t-82.5 -245v-553h-256v1219h-201v165h201v136h246v-136h475v-165
h-475v-265q63 74 160 113t215 39z" />
    <glyph glyph-name="uni0453" unicode="&#x453;" horiz-adv-x="1026" 
d="M1001 1520l-356 -281h-221l276 281h301zM1012 1094v-217h-584v-877h-256v1094h840z" />
    <glyph glyph-name="uni0454" unicode="&#x454;" horiz-adv-x="1196" 
d="M690 186q190 0 318 131l147 -143q-169 -190 -475 -190q-172 0 -309.5 72t-215 200.5t-77.5 290.5t77.5 291t215 201.5t309.5 72.5q304 0 475 -190l-147 -144q-129 129 -318 129q-140 0 -239 -75t-127 -199h505v-184h-503q31 -121 129 -192t235 -71z" />
    <glyph glyph-name="uni0455" unicode="&#x455;" horiz-adv-x="1114" 
d="M539 -14q-134 0 -261 34.5t-202 88.5l98 194q73 -48 176.5 -78t204.5 -30q229 0 229 120q0 37 -29 61.5t-76.5 35.5t-108 22t-124 20t-124 31.5t-108 54t-76.5 89t-29 135.5q0 156 130 249t351 93q111 0 224 -25.5t185 -68.5l-98 -195q-140 82 -313 82
q-113 0 -171.5 -33.5t-58.5 -89.5q0 -44 37.5 -71.5t97 -40.5t131.5 -23.5t144 -29t131.5 -49t97 -91t37.5 -147.5q0 -155 -133 -246.5t-362 -91.5z" />
    <glyph glyph-name="uni0456" unicode="&#x456;" horiz-adv-x="602" 
d="M301 1274q-70 0 -117 44t-47 109t47 109.5t117 44.5t117 -42t47 -105q0 -68 -46.5 -114t-117.5 -46zM172 0v1094h256v-1094h-256z" />
    <glyph glyph-name="uni0457" unicode="&#x457;" horiz-adv-x="591" 
d="M141 1268q-52 0 -85 34t-33 87t33 87.5t85 34.5q50 0 83.5 -34.5t33.5 -87.5q0 -52 -33.5 -86.5t-83.5 -34.5zM455 1268q-51 0 -85 34.5t-34 86.5t34 87t85 35t83.5 -34t32.5 -88q0 -53 -32.5 -87t-83.5 -34zM168 0v1094h256v-1094h-256z" />
    <glyph glyph-name="uni0458" unicode="&#x458;" horiz-adv-x="604" 
d="M303 1274q-70 0 -117 44t-47 109t47 109.5t117 44.5t117 -42t47 -105q0 -68 -46.5 -114t-117.5 -46zM51 -412q-162 0 -246 64l74 190q58 -43 150 -43q147 0 147 174v1121h256v-1114q0 -182 -100 -287t-281 -105z" />
    <glyph glyph-name="uni0459" unicode="&#x459;" horiz-adv-x="1941" 
d="M1456 733q209 0 320.5 -94t111.5 -266q0 -180 -122.5 -278t-346.5 -97l-512 2v877h-409l-11 -218q-5 -105 -13 -186t-23.5 -162t-40 -138t-59.5 -102.5t-84.5 -68t-112.5 -22.5q-59 0 -142 22l13 215q27 -6 49 -6q39 0 69 16.5t48.5 48.5t31 70.5t19.5 91.5t10.5 101
t6.5 109q1 16 1 24l19 422h884v-359zM1397 186q113 -2 172 47t59 144q0 92 -57.5 135t-173.5 45l-234 2v-371z" />
    <glyph glyph-name="uni045A" unicode="&#x45a;" horiz-adv-x="1970" 
d="M1505 686q201 0 309.5 -86t108.5 -244q0 -167 -120.5 -261.5t-334.5 -94.5h-510v469h-530v-469h-256v1094h256v-408h530v408h256v-408h291zM1452 184q100 0 154.5 42t54.5 116q0 72 -53 109.5t-156 37.5h-238v-305h238z" />
    <glyph glyph-name="uni045B" unicode="&#x45b;" horiz-adv-x="1390" 
d="M793 1106q206 0 331 -120.5t125 -358.5v-627h-256v594q0 144 -67.5 216.5t-192.5 72.5q-140 0 -222.5 -85t-82.5 -245v-553h-256v1229h-254v141h254v150h256v-150h461v-141h-461v-262q130 139 365 139z" />
    <glyph glyph-name="uni045C" unicode="&#x45c;" horiz-adv-x="1265" 
d="M1057 1524l-357 -281h-221l277 281h301zM956 0l-329 438h-199v-438h-256v1094h256v-443h205l323 443h275l-397 -527l423 -567h-301z" />
    <glyph glyph-name="uni045D" unicode="&#x45d;" horiz-adv-x="1437" 
d="M653 1243l-356 281h301l276 -281h-221zM172 0v1094h256v-721l604 721h234v-1094h-256v721l-602 -721h-236z" />
    <glyph glyph-name="uni045E" unicode="&#x45e;" horiz-adv-x="1210" 
d="M578 1223q-165 0 -253 76.5t-89 224.5h170q2 -74 46 -117t123 -43q78 0 124.5 43t48.5 117h174q-3 -149 -91 -225t-253 -76zM958 1094h246l-512 -1182q-72 -178 -174.5 -251t-247.5 -73q-82 0 -161.5 27t-131.5 74l103 188q79 -76 188 -76q67 0 111.5 35t81.5 117l18 43
l-477 1098h266l344 -809z" />
    <glyph glyph-name="uni045F" unicode="&#x45f;" horiz-adv-x="1337" 
d="M1163 1094v-1094h-372v-252h-242v252h-377v1094h256v-877h481v877h254z" />
    <glyph glyph-name="uni0462" unicode="&#x462;" horiz-adv-x="1679" 
d="M1081 938q257 0 393 -117.5t136 -339.5q0 -230 -149 -355.5t-423 -125.5h-626v1122h-375v187h375v211h262v-211h432v-187h-432v-184h407zM1028 205q154 0 232.5 68t78.5 200q0 260 -311 260h-354v-528h354z" />
    <glyph glyph-name="uni0463" unicode="&#x463;" horiz-adv-x="1290" 
d="M805 733q209 0 320.5 -94t111.5 -266q0 -180 -122.5 -278t-346.5 -97l-512 2v977h-258v176h258v367h256v-367h397v-176h-397v-242zM745 186q113 -2 172.5 47t59.5 144q0 92 -58 135t-174 45l-233 2v-371z" />
    <glyph glyph-name="uni046A" unicode="&#x46a;" horiz-adv-x="1886" 
d="M1729 311l126 -311h-274l-96 250q-111 334 -350 334h-70v-584h-246v584h-63q-122 0 -210 -78t-147 -256l-94 -250h-274l129 311q89 237 213.5 347t296.5 116l-461 490v170h1468v-164l-463 -496q172 -5 299.5 -114.5t215.5 -348.5zM1382 1235h-878l440 -461z" />
    <glyph glyph-name="uni046B" unicode="&#x46b;" horiz-adv-x="1505" 
d="M1391 229l92 -229h-250l-66 174q-41 135 -100.5 193.5t-151.5 58.5h-57v-426h-219v426h-49q-91 0 -152.5 -59t-101.5 -193l-64 -174h-249l92 229q70 187 160 272.5t221 94.5l-334 342v156h1173v-156l-336 -340q136 -8 229.5 -94t162.5 -275zM1071 924h-643l317 -326h5z
" />
    <glyph glyph-name="uni0472" unicode="&#x472;" horiz-adv-x="1730" 
d="M864 1454q219 0 395.5 -95t276.5 -263.5t100 -378.5t-100 -378.5t-276.5 -263.5t-395.5 -95t-395.5 95t-276.5 264t-100 378t100 378t276.5 264t395.5 95zM864 1221q-191 0 -327 -112.5t-168 -293.5h991q-32 181 -168.5 293.5t-327.5 112.5zM864 213q191 0 327.5 112
t168.5 293h-991q32 -181 168 -293t327 -112z" />
    <glyph glyph-name="uni0473" unicode="&#x473;" horiz-adv-x="1341" 
d="M670 1106q259 0 426.5 -156.5t167.5 -402.5q0 -245 -167.5 -403t-426.5 -158q-257 0 -424.5 158t-167.5 403q0 246 167 402.5t425 156.5zM670 911q-132 0 -223.5 -74.5t-116.5 -203.5h682q-25 129 -117.5 203.5t-224.5 74.5zM670 182q132 0 224.5 75t117.5 204h-682
q25 -127 117 -203t223 -76z" />
    <glyph glyph-name="uni0474" unicode="&#x474;" horiz-adv-x="1589" 
d="M608 0l-585 1434h288l430 -1055l275 754q58 167 148.5 246t230.5 79q70 0 166 -22l-27 -254q-49 12 -88 12q-78 0 -128.5 -52t-92.5 -171l-353 -971h-264z" />
    <glyph glyph-name="uni0475" unicode="&#x475;" horiz-adv-x="1271" 
d="M817 872q46 126 116 185t175 59q62 0 152 -22l-27 -248q-46 12 -78 12q-48 0 -77 -34t-64 -126l-277 -698h-256l-477 1094h281l325 -766z" />
    <glyph glyph-name="uni048A" unicode="&#x48a;" horiz-adv-x="1753" 
d="M840 1530q-184 0 -277.5 76.5t-95.5 220.5h186q2 -77 50 -117.5t137 -40.5q88 0 137.5 41t52.5 117h184q-2 -144 -96.5 -220.5t-277.5 -76.5zM1483 225h209l-154 -530h-211l68 305h-174v1016l-770 -1016h-248v1434h262v-1018l770 1018h248v-1209z" />
    <glyph glyph-name="uni048B" unicode="&#x48b;" horiz-adv-x="1486" 
d="M702 1229q-150 0 -249 80.5t-105 214.5h168q3 -69 55.5 -111.5t130.5 -42.5t131 42.5t56 111.5h168q-6 -134 -105.5 -214.5t-249.5 -80.5zM1266 217h170l-129 -442h-205l53 225h-145v721l-602 -721h-236v1094h256v-721l604 721h234v-877z" />
    <glyph glyph-name="uni048C" unicode="&#x48c;" horiz-adv-x="1525" 
d="M928 938q255 0 390.5 -117.5t135.5 -339.5q0 -231 -148 -356t-423 -125h-627v1122h-199v187h199v211h262v-211h430v-187h-430v-184h410zM872 205q154 0 233 68t79 200q0 260 -312 260h-354v-528h354z" />
    <glyph glyph-name="uni048D" unicode="&#x48d;" horiz-adv-x="1273" 
d="M791 700q212 -2 322 -87t110 -253q0 -177 -122.5 -270.5t-348.5 -91.5l-510 2v807h-203v174h203v113h256v-113h397v-174h-397v-105zM731 184q232 -3 232 178q0 90 -56 125t-176 37l-233 2v-342h233z" />
    <glyph glyph-name="uni048E" unicode="&#x48e;" horiz-adv-x="1503" 
d="M1401 913q0 -283 -215 -424l172 -223l-129 -104l-199 260q-112 -31 -237 -31h-324v-391h-266v1434h590q283 0 445.5 -138t162.5 -383zM780 616q43 0 97 7l-183 237l127 105l213 -279q99 76 99 227q0 143 -91 219t-262 76h-311v-592h311z" />
    <glyph glyph-name="uni048F" unicode="&#x48f;" horiz-adv-x="1437" 
d="M1339 545q0 -255 -159 -414l127 -162l-125 -98l-135 168q-109 -53 -238 -53q-257 0 -379 190v-573h-258v1491h246v-195q120 207 391 207q111 0 208 -40.5t168.5 -112.5t112.5 -177.5t41 -230.5zM756 203q78 0 137 26l-139 174l131 103l137 -174q63 85 63 213
q0 156 -93 250t-236 94q-144 0 -237 -94t-93 -250q0 -155 93 -248.5t237 -93.5z" />
    <glyph glyph-name="uni0490" unicode="&#x490;" horiz-adv-x="1204" 
d="M203 0v1434h727v295h246v-521h-711v-1208h-262z" />
    <glyph glyph-name="uni0491" unicode="&#x491;" horiz-adv-x="991" 
d="M172 0v1094h563v223h240v-440h-547v-877h-256z" />
    <glyph glyph-name="uni0492" unicode="&#x492;" horiz-adv-x="1288" 
d="M1237 1208h-711v-456h582v-185h-580v-567h-262v567h-215v185h215v682h973z" />
    <glyph glyph-name="uni0493" unicode="&#x493;" horiz-adv-x="1089" 
d="M1053 877h-584v-328h440v-168h-440v-381h-256v381h-135v168h135v545h840v-217z" />
    <glyph glyph-name="uni0494" unicode="&#x494;" horiz-adv-x="1443" 
d="M465 735q188 78 354 78q155 0 277 -62t193 -183.5t71 -284.5q0 -128 -43 -238t-117.5 -186t-178.5 -119t-224 -43q-75 0 -144 14l45 213q39 -8 80 -8q138 0 229 96.5t91 251.5q0 157 -94.5 247.5t-243.5 90.5q-147 0 -295 -90v-512h-262v1434h1014v-226h-752v-473z" />
    <glyph glyph-name="uni0495" unicode="&#x495;" horiz-adv-x="1255" 
d="M428 539q149 55 287 55q221 0 361.5 -129.5t140.5 -351.5q0 -231 -150 -377t-393 -146q-83 0 -164 17l53 215q47 -8 96 -8q139 0 217 78.5t78 209.5q0 140 -81 210.5t-207 70.5q-123 0 -238 -59v-324h-256v1094h821v-217h-565v-338z" />
    <glyph glyph-name="uni0496" unicode="&#x496;" horiz-adv-x="2226" 
d="M1987 225h213v-530h-246v305h-139l-361 604h-246v-604h-260v604h-246l-362 -604h-307l450 748l-420 686h283l350 -600h252v600h260v-600h248l352 600h283l-418 -689z" />
    <glyph glyph-name="uni0497" unicode="&#x497;" horiz-adv-x="1861" 
d="M1647 213h198v-440h-231v227h-137l-267 438h-184v-438h-254v438h-184l-266 -438h-304l359 565l-332 529h272l267 -443h188v443h254v-443h186l269 443h272l-332 -529z" />
    <glyph glyph-name="uni0498" unicode="&#x498;" horiz-adv-x="1329" 
d="M1229 401q0 -111 -64.5 -199.5t-171 -141.5t-243.5 -72v-293h-248v291q-248 26 -443 153l86 195q94 -64 209.5 -97.5t227.5 -33.5q161 0 268.5 63t107.5 174q0 95 -77 144t-215 49h-334v209h313q120 0 187 48.5t67 133.5q0 99 -91.5 155t-232.5 56q-207 0 -391 -109
l-84 215q221 119 482 119q159 0 291.5 -47t214 -140t81.5 -216q0 -106 -57 -186.5t-158 -122.5q128 -40 201.5 -131.5t73.5 -215.5z" />
    <glyph glyph-name="uni0499" unicode="&#x499;" horiz-adv-x="1132" 
d="M1040 322q0 -128 -107 -216.5t-284 -113.5v-217h-241v213q-198 18 -359 108l74 191q169 -94 381 -94q128 0 201 39.5t73 109.5q0 64 -56 98.5t-159 34.5h-213v172h193q97 0 151 32.5t54 92.5t-65.5 94.5t-180.5 34.5q-163 0 -346 -80l-66 189q214 100 434 100
q212 0 349 -83.5t137 -217.5q0 -79 -49.5 -142.5t-135.5 -97.5q102 -30 158.5 -93.5t56.5 -153.5z" />
    <glyph glyph-name="uni049A" unicode="&#x49a;" horiz-adv-x="1560" 
d="M1294 225h240v-530h-246v305h-139l-420 604h-266v-604h-262v1434h262v-600h274l412 600h283l-490 -695z" />
    <glyph glyph-name="uni049B" unicode="&#x49b;" horiz-adv-x="1265" 
d="M1098 213h227v-440h-231v227h-138l-329 438h-199v-438h-256v1094h256v-443h205l323 443h275l-397 -527z" />
    <glyph glyph-name="uni049C" unicode="&#x49c;" horiz-adv-x="1548" 
d="M1206 0l-375 604h-75v-264h-176v264h-117v-604h-262v1434h262v-600h117v266h176v-266h82l362 600h283l-434 -693l469 -741h-312z" />
    <glyph glyph-name="uni049D" unicode="&#x49d;" horiz-adv-x="1298" 
d="M983 0l-274 438h-43v-182h-162v182h-82v-438h-256v1094h256v-443h82v187h162v-187h49l272 443h266l-338 -527l367 -567h-299z" />
    <glyph glyph-name="uni049E" unicode="&#x49e;" horiz-adv-x="1525" 
d="M1194 0l-420 604h-266v-604h-262v1098h-183v168h183v168h262v-168h313v-168h-313v-264h274l412 600h283l-490 -695l508 -739h-301z" />
    <glyph glyph-name="uni049F" unicode="&#x49f;" horiz-adv-x="1263" 
d="M952 0l-327 438h-197v-438h-256v1219h-182v170h182v131h256v-134l297 -2v-165h-297v-568h201l327 443h273l-398 -525l424 -569h-303z" />
    <glyph glyph-name="uni04A0" unicode="&#x4a0;" horiz-adv-x="1728" 
d="M1397 0l-420 604h-266v-604h-262v1208h-420v226h682v-600h274l412 600h282l-489 -693l510 -741h-303z" />
    <glyph glyph-name="uni04A1" unicode="&#x4a1;" horiz-adv-x="1429" 
d="M1120 0l-329 438h-199v-438h-256v881h-322v213h578v-443h205l323 443h275l-398 -527l424 -567h-301z" />
    <glyph glyph-name="uni04A2" unicode="&#x4a2;" horiz-adv-x="1738" 
d="M1475 225h215v-530h-246v305h-236v614h-741v-614h-266v1434h266v-592h741v592h267v-1209z" />
    <glyph glyph-name="uni04A3" unicode="&#x4a3;" horiz-adv-x="1454" 
d="M1235 217h166v-442h-240v225h-182v432h-551v-432h-256v1094h256v-445h551v445h256v-877z" />
    <glyph glyph-name="uni04A4" unicode="&#x4a4;" horiz-adv-x="2217" 
d="M2187 1434l-2 -226h-710l2 -1208h-269v614h-741v-614h-266v1434h266v-592h741v592h979z" />
    <glyph glyph-name="uni04A5" unicode="&#x4a5;" horiz-adv-x="1832" 
d="M1819 1094v-217h-584v-877h-256v432h-551v-432h-256v1094h256v-445h551v445h840z" />
    <glyph glyph-name="uni04A6" unicode="&#x4a6;" horiz-adv-x="2430" 
d="M1470 737q176 74 349 74q156 0 278 -62t193 -183t71 -283q0 -128 -43 -238t-117.5 -186t-178.5 -119t-224 -43q-74 0 -143 14l43 213q39 -8 82 -8q139 0 228 96t89 252t-92 245t-238 89q-144 0 -297 -84v-514h-262v1208h-743v-1208h-262v1434h1267v-697z" />
    <glyph glyph-name="uni04A7" unicode="&#x4a7;" horiz-adv-x="2017" 
d="M1198 541q140 53 285 53q219 0 359 -129t140 -352q0 -232 -150 -377.5t-394 -145.5q-83 0 -164 17l53 215q47 -8 96 -8q140 0 218.5 78.5t78.5 209.5q0 140 -82 210.5t-208 70.5q-118 0 -232 -57v-326h-256v877h-514v-877h-256v1094h1026v-553z" />
    <glyph glyph-name="uni04A8" unicode="&#x4a8;" horiz-adv-x="1998" 
d="M1874 -2q-139 -37 -279 -37q-189 0 -354 68q-157 -54 -326 -54q-234 0 -418 97.5t-288.5 278t-104.5 415.5q0 215 89 397t253 299l211 -114q-135 -103 -210.5 -260t-75.5 -334q0 -265 165 -425.5t429 -160.5q31 0 45 2q-135 117 -211 283t-76 364q0 292 158 470.5
t417 178.5q252 0 404.5 -166.5t152.5 -441.5q0 -212 -95.5 -393.5t-262.5 -304.5q62 -10 115 -10q118 0 239 36zM983 817q0 -194 78.5 -343.5t216.5 -233.5q150 79 233.5 232t83.5 359q0 193 -79.5 301.5t-221.5 108.5q-146 0 -228.5 -113.5t-82.5 -310.5z" />
    <glyph glyph-name="uni04A9" unicode="&#x4a9;" horiz-adv-x="1677" 
d="M1563 -8q-121 -31 -230 -31q-159 0 -301 57q-128 -38 -268 -38q-306 0 -493 168t-187 444q0 162 71 300.5t201 225.5l203 -104q-105 -86 -162 -196.5t-57 -235.5q0 -191 125.5 -303.5t337.5 -112.5q-93 90 -144 208t-51 253q0 223 131.5 358t350.5 135q210 0 336 -126
t126 -335q0 -151 -68 -282t-190 -225q57 -5 68 -5q85 0 188 25zM1085 911q-109 0 -172 -75.5t-63 -204.5q0 -135 57.5 -240t159.5 -168q117 59 180.5 168t63.5 254q0 123 -61.5 194.5t-164.5 71.5z" />
    <glyph glyph-name="uni04AA" unicode="&#x4aa;" horiz-adv-x="1476" 
d="M874 213q229 0 383 170l173 -164q-180 -208 -480 -235v-289h-248v299q-270 48 -439 246t-169 477q0 211 99.5 379.5t275 263t393.5 94.5q175 0 322 -61.5t246 -178.5l-173 -161q-155 168 -383 168q-223 0 -367.5 -141.5t-144.5 -362.5t144.5 -362.5t367.5 -141.5z" />
    <glyph glyph-name="uni04AB" unicode="&#x4ab;" horiz-adv-x="1189" 
d="M668 205q176 0 272 151l197 -114q-54 -104 -149 -167.5t-222 -82.5v-217h-242v225q-202 42 -324 190t-122 357q0 246 166 402.5t426 156.5q161 0 283 -65.5t184 -188.5l-197 -115q-96 152 -272 152q-144 0 -238 -93.5t-94 -248.5q0 -156 94 -249t238 -93z" />
    <glyph glyph-name="uni04AC" unicode="&#x4ac;" horiz-adv-x="1269" 
d="M1241 1208h-475v-983h211v-530h-246v305h-229v1208h-473v226h1212v-226z" />
    <glyph glyph-name="uni04AD" unicode="&#x4ad;" horiz-adv-x="1052" 
d="M1038 877h-383v-660h166v-442h-239v225h-183v877h-385v217h1024v-217z" />
    <glyph glyph-name="uni04AE" unicode="&#x4ae;" horiz-adv-x="1409" 
d="M1399 1434l-561 -928v-506h-267v504l-563 930h285l422 -699l422 699h262z" />
    <glyph glyph-name="uni04AF" unicode="&#x4af;" horiz-adv-x="1214" 
d="M1208 1094l-473 -1100v-391h-258v387l-471 1104h266l340 -811l351 811h245z" />
    <glyph glyph-name="uni04B0" unicode="&#x4b0;" horiz-adv-x="1409" 
d="M1399 1434l-502 -830h248v-168h-307v-436h-267v436h-321v168h262l-504 830h285l422 -699l422 699h262z" />
    <glyph glyph-name="uni04B1" unicode="&#x4b1;" horiz-adv-x="1214" 
d="M1208 1094l-430 -998h289v-168h-332v-325h-258v325h-336v168h291l-426 998h266l340 -811l351 811h245z" />
    <glyph glyph-name="uni04B2" unicode="&#x4b2;" horiz-adv-x="1484" 
d="M1235 225h227v-530h-245v305h-140l-372 522l-371 -522h-307l518 735l-486 699h308l338 -480l337 480h312l-482 -689z" />
    <glyph glyph-name="uni04B3" unicode="&#x4b3;" horiz-adv-x="1155" 
d="M981 213h242v-440h-232v227h-137v2l-279 377l-282 -379h-283l426 555l-407 539h284l269 -359l268 359h276l-409 -535z" />
    <glyph glyph-name="uni04B4" unicode="&#x4b4;" horiz-adv-x="2013" 
d="M1757 223h213v-540h-246v315h-1216v2h-2v1208h-475v226h1140v-226h-401v-985h723v1209h264v-1209z" />
    <glyph glyph-name="uni04B5" unicode="&#x4b5;" horiz-adv-x="1609" 
d="M1393 217h151v-442h-237v225h-906v877h-385v217h924v-217h-285v-660h484v877h254v-877z" />
    <glyph glyph-name="uni04B6" unicode="&#x4b6;" horiz-adv-x="1583" 
d="M1319 225h211v-530h-246v305h-229v541q-204 -76 -385 -76q-276 0 -424 132.5t-148 379.5v457h264v-428q0 -152 87.5 -232t252.5 -80q185 0 353 76v664h264v-1209z" />
    <glyph glyph-name="uni04B7" unicode="&#x4b7;" horiz-adv-x="1331" 
d="M1100 217h166v-442h-240v225h-182v424q-158 -76 -330 -76q-212 0 -324 97.5t-112 297.5v351h256v-334q0 -207 235 -207q144 0 275 61v480h256v-877z" />
    <glyph glyph-name="uni04B8" unicode="&#x4b8;" horiz-adv-x="1519" 
d="M1053 1434h264v-1434h-264v541q-142 -53 -271 -68v-272h-176v266q-246 14 -378 145.5t-132 364.5v457h264v-428q0 -129 63 -206.5t183 -97.5v261h176v-265q139 12 271 72v664z" />
    <glyph glyph-name="uni04B9" unicode="&#x4b9;" horiz-adv-x="1271" 
d="M842 1094h256v-1094h-256v424q-98 -47 -183 -62v-204h-163v190q-204 3 -312 101t-108 294v351h256v-334q0 -172 166 -201v195h161v-195q98 16 183 55v480z" />
    <glyph glyph-name="uni04BA" unicode="&#x4ba;" horiz-adv-x="1519" 
d="M850 969q275 0 423 -132.5t148 -379.5v-457h-262v428q0 151 -88 231t-252 80q-188 0 -354 -75v-664h-262v1434h262v-541q204 76 385 76z" />
    <glyph glyph-name="uni04BB" unicode="&#x4bb;" horiz-adv-x="1390" 
d="M793 1106q206 0 331 -120.5t125 -358.5v-627h-256v594q0 144 -67.5 216.5t-192.5 72.5q-140 0 -222.5 -85t-82.5 -245v-553h-256v1520h256v-553q130 139 365 139z" />
    <glyph glyph-name="uni04BC" unicode="&#x4bc;" horiz-adv-x="2056" 
d="M1978 723q0 -63 -10 -125h-1200q37 -177 172.5 -282t310.5 -105q106 0 212 43t194 127l194 -168q-125 -115 -282.5 -174t-319.5 -59q-138 0 -264.5 41.5t-228.5 118t-171.5 195t-88.5 263.5h-58q-178 0 -279.5 98.5t-101.5 253.5q0 112 58 234l241 -43q-55 -85 -55 -168
q0 -72 45 -118t127 -46h21q16 149 83.5 272t168.5 204t228 125t265 44q118 0 227.5 -31.5t202.5 -94.5t162 -150t108 -204t39 -251zM1239 1225q-178 0 -312.5 -114.5t-164.5 -301.5h942q-26 189 -156.5 302.5t-308.5 113.5z" />
    <glyph glyph-name="uni04BD" unicode="&#x4bd;" horiz-adv-x="1624" 
d="M1550 541q0 -39 -6 -76h-882q23 -121 121 -191.5t245 -70.5q183 0 305 119l142 -158q-155 -178 -455 -178q-254 0 -421.5 132t-195.5 347h-45q-155 0 -237 65t-82 181q0 87 45 186l207 -39q-37 -64 -37 -117q0 -50 35 -78t102 -28h12q31 210 189.5 340.5t386.5 130.5
q250 0 410.5 -155.5t160.5 -409.5zM979 901q-127 0 -214 -73t-106 -193h639q-17 120 -103.5 193t-215.5 73z" />
    <glyph glyph-name="uni04BE" unicode="&#x4be;" horiz-adv-x="2056" 
d="M1978 723q0 -63 -10 -125h-1200q37 -177 172.5 -282t310.5 -105q106 0 212 43t194 127l194 -168q-200 -182 -473 -223v-295h-248v293q-119 16 -225.5 64t-192 123.5t-142.5 184.5t-74 238h-58q-178 0 -279.5 98.5t-101.5 253.5q0 112 58 234l241 -43q-55 -85 -55 -168
q0 -72 45 -118t127 -46h21q16 149 83.5 272t168.5 204t228 125t265 44q118 0 227.5 -31.5t202.5 -94.5t162 -150t108 -204t39 -251zM1239 1225q-178 0 -312.5 -114.5t-164.5 -301.5h942q-26 189 -156.5 302.5t-308.5 113.5z" />
    <glyph glyph-name="uni04BF" unicode="&#x4bf;" horiz-adv-x="1624" 
d="M1550 541q0 -39 -6 -76h-882q23 -121 121 -191.5t245 -70.5q183 0 305 119l142 -158q-131 -150 -367 -174v-215h-242v225q-193 37 -316.5 161.5t-146.5 303.5h-45q-155 0 -237 65t-82 181q0 87 45 186l207 -39q-37 -64 -37 -117q0 -50 35 -78t102 -28h12
q31 210 189.5 340.5t386.5 130.5q250 0 410.5 -155.5t160.5 -409.5zM979 901q-127 0 -214 -73t-106 -193h639q-17 120 -103.5 193t-215.5 73z" />
    <glyph glyph-name="uni04C0" unicode="&#x4c0;" horiz-adv-x="669" 
d="M203 0v1434h264v-1434h-264z" />
    <glyph glyph-name="uni04C1" unicode="&#x4c1;" horiz-adv-x="2154" 
d="M1081 1530q-184 0 -277 76.5t-95 220.5h186q2 -77 49.5 -117.5t136.5 -40.5q88 0 138 41t53 117h184q-2 -144 -97 -220.5t-278 -76.5zM1815 0l-361 604h-246v-604h-260v604h-246l-362 -604h-307l450 748l-420 686h283l350 -600h252v600h260v-600h248l352 600h283
l-418 -689l449 -745h-307z" />
    <glyph glyph-name="uni04C2" unicode="&#x4c2;" horiz-adv-x="1800" 
d="M899 1223q-165 0 -253 76.5t-89 224.5h170q2 -74 46.5 -117t123.5 -43q78 0 124 43t48 117h174q-3 -149 -91 -225t-253 -76zM1477 0l-267 438h-184v-438h-254v438h-184l-266 -438h-304l359 565l-332 529h272l267 -443h188v443h254v-443h186l269 443h272l-332 -529
l361 -565h-305z" />
    <glyph glyph-name="uni04C3" unicode="&#x4c3;" horiz-adv-x="1492" 
d="M942 741q122 -127 206.5 -225t158 -200.5t109.5 -192.5t36 -170q0 -173 -100.5 -272t-274.5 -99q-130 0 -254 62l66 198q70 -37 133 -37q65 0 103 41t38 115q0 113 -124 289t-308 354h-266v-604h-262v1434h262v-600h272l412 600h283z" />
    <glyph glyph-name="uni04C4" unicode="&#x4c4;" horiz-adv-x="1265" 
d="M846 586q377 -363 377 -645q0 -163 -100.5 -259t-266.5 -96q-122 0 -248 60l68 188q70 -37 139 -37q68 0 109 41.5t41 112.5q0 98 -80.5 227t-220.5 260h-236v-438h-256v1094h256v-443h205l323 443h275z" />
    <glyph glyph-name="uni04C6" unicode="&#x4c6;" horiz-adv-x="1384" 
d="M1163 217h170l-129 -442h-205l54 225h-146v877h-409l-11 -218q-5 -105 -13 -186t-23.5 -162t-40 -138t-59.5 -102.5t-84.5 -68t-112.5 -22.5q-59 0 -142 22l13 215q27 -6 49 -6q39 0 69 16.5t48.5 48.5t31 70.5t19.5 91.5t10.5 101t6.5 109q1 16 1 24l19 422h884v-877z
" />
    <glyph glyph-name="uni04C7" unicode="&#x4c7;" horiz-adv-x="1669" 
d="M838 -346l71 188q68 -41 138 -41q68 0 112.5 40.5t44.5 115.5v643h-739v-600h-262v1434h262v-607h739v607h262v-1483q0 -175 -108 -270t-266 -95q-136 0 -254 68z" />
    <glyph glyph-name="uni04C8" unicode="&#x4c8;" horiz-adv-x="1417" 
d="M872 -412q-160 0 -249 66l71 188q58 -43 144 -43q72 0 111.5 44t39.5 130v459h-561v-432h-256v1094h256v-445h561v445h254v-1127q0 -174 -97.5 -276.5t-273.5 -102.5z" />
    <glyph glyph-name="uni04C9" unicode="&#x4c9;" horiz-adv-x="1744" 
d="M1475 225h211l-154 -530h-211l68 305h-181v614h-741v-614h-266v1434h266v-592h741v592h267v-1209z" />
    <glyph glyph-name="uni04CA" unicode="&#x4ca;" horiz-adv-x="1456" 
d="M1235 217h170l-129 -442h-205l53 225h-145v432h-551v-432h-256v1094h256v-445h551v445h256v-877z" />
    <glyph glyph-name="uni04CB" unicode="&#x4cb;" horiz-adv-x="1509" 
d="M1044 1434h265v-1434h-269v-305h-247v530h251v371q-198 -76 -380 -76q-275 0 -423.5 127t-148.5 363v424h264v-396q0 -140 87.5 -215t250.5 -75q177 0 350 75v611z" />
    <glyph glyph-name="uni04CC" unicode="&#x4cc;" horiz-adv-x="1263" 
d="M836 1094h256v-1094h-205v-225h-240v432h189v262q-154 -74 -330 -74q-211 0 -323.5 97t-112.5 296v306h256v-289q0 -207 237 -207q133 0 273 64v432z" />
    <glyph glyph-name="uni04CD" unicode="&#x4cd;" horiz-adv-x="2064" 
d="M1772 225h233l-154 -530h-211l68 305h-190l-2 950l-472 -786h-118l-471 774v-938h-252v1434h219l567 -949l561 949h217z" />
    <glyph glyph-name="uni04CE" unicode="&#x4ce;" horiz-adv-x="1726" 
d="M1479 217h194l-129 -442h-205l54 225h-146v725l-368 -610h-111l-362 612v-727h-234v1094h268l389 -684l408 684h240z" />
    <glyph glyph-name="uni04CF" unicode="&#x4cf;" horiz-adv-x="602" 
d="M172 0v1520h256v-1520h-256z" />
    <glyph glyph-name="uni04D0" unicode="&#x4d0;" horiz-adv-x="1591" 
d="M795 1530q-184 0 -277.5 76.5t-95.5 220.5h186q2 -77 50 -117.5t137 -40.5q88 0 137.5 41t52.5 117h184q-2 -144 -96.5 -220.5t-277.5 -76.5zM1294 0l-143 332h-717l-141 -332h-275l646 1434h262l647 -1434h-279zM524 541h539l-270 626z" />
    <glyph glyph-name="uni04D1" unicode="&#x4d1;" horiz-adv-x="1222" 
d="M602 1223q-165 0 -253 76.5t-89 224.5h170q2 -74 46.5 -117t123.5 -43q78 0 124 43t48 117h174q-3 -149 -91 -225t-253 -76zM580 1106q240 0 368.5 -116t128.5 -349v-641h-241v133q-95 -147 -344 -147q-185 0 -296.5 91.5t-111.5 235.5q0 71 25 128.5t77.5 102.5t142 70
t210.5 25h282v16q0 114 -68.5 176t-203.5 62q-93 0 -182 -29t-150 -80l-100 187q86 66 207 100.5t256 34.5zM545 172q97 0 171 43.5t105 126.5v127h-264q-221 0 -221 -145q0 -70 56 -111t153 -41z" />
    <glyph glyph-name="uni04D2" unicode="&#x4d2;" horiz-adv-x="1591" 
d="M596 1573q-53 0 -88 34.5t-35 88.5q0 55 35 90t88 35t88 -35t35 -90q0 -54 -35 -88.5t-88 -34.5zM993 1573q-53 0 -88 34.5t-35 88.5q0 55 35 90t88 35t88 -35t35 -90q0 -54 -35 -88.5t-88 -34.5zM1294 0l-143 332h-717l-141 -332h-275l646 1434h262l647 -1434h-279z
M524 541h539l-270 626z" />
    <glyph glyph-name="uni04D3" unicode="&#x4d3;" horiz-adv-x="1222" 
d="M403 1266q-53 0 -87.5 34.5t-34.5 88.5q0 55 34.5 89.5t87.5 34.5t88 -34.5t35 -89.5q0 -54 -35 -88.5t-88 -34.5zM801 1266q-53 0 -88 34.5t-35 88.5q0 55 35 89.5t88 34.5t88 -34.5t35 -89.5q0 -54 -35 -88.5t-88 -34.5zM580 1106q240 0 368.5 -116t128.5 -349v-641
h-241v133q-95 -147 -344 -147q-185 0 -296.5 91.5t-111.5 235.5q0 71 25 128.5t77.5 102.5t142 70t210.5 25h282v16q0 114 -68.5 176t-203.5 62q-93 0 -182 -29t-150 -80l-100 187q86 66 207 100.5t256 34.5zM545 172q97 0 171 43.5t105 126.5v127h-264q-221 0 -221 -145
q0 -70 56 -111t153 -41z" />
    <glyph glyph-name="uni04D4" unicode="&#x4d4;" horiz-adv-x="2189" 
d="M1284 223h809v-223h-1075v332h-545l-188 -332h-275l832 1434h1222v-224h-780v-372h692v-220h-692v-395zM592 541h426v669h-45z" />
    <glyph glyph-name="uni04D5" unicode="&#x4d5;" horiz-adv-x="2041" 
d="M1950 551q0 -47 -6 -82h-863q20 -122 115 -194t240 -72q175 0 297 119l139 -158q-155 -178 -442 -178q-313 0 -478 200q-124 -200 -426 -200q-205 0 -323.5 92.5t-118.5 245.5q0 139 110.5 226t344.5 87h282v18q0 114 -68.5 176t-201.5 62q-94 0 -183.5 -29t-150.5 -80
l-100 187q86 66 207.5 100.5t253.5 34.5q289 0 407 -168q73 79 179 123.5t229 44.5q157 0 284 -69.5t200 -197t73 -288.5zM1391 901q-114 0 -203.5 -69t-108.5 -195h619q-16 125 -104 194.5t-203 69.5zM549 172q127 0 199.5 65.5t72.5 174.5v57h-264q-221 0 -221 -141
q0 -73 56.5 -114.5t156.5 -41.5z" />
    <glyph glyph-name="uni04D6" unicode="&#x4d6;" horiz-adv-x="1372" 
d="M727 1530q-184 0 -277.5 76.5t-95.5 220.5h187q2 -77 49.5 -117.5t136.5 -40.5q88 0 138 41t53 117h184q-2 -144 -97 -220.5t-278 -76.5zM467 223h809v-223h-1075v1434h1046v-224h-780v-372h692v-220h-692v-395z" />
    <glyph glyph-name="uni04D7" unicode="&#x4d7;" horiz-adv-x="1304" 
d="M637 1223q-165 0 -253 76.5t-89 224.5h170q2 -74 46.5 -117t123.5 -43q78 0 124 43t48 117h174q-3 -149 -91 -225t-253 -76zM1196 541q0 -26 -4 -76h-858q23 -121 117.5 -191.5t236.5 -70.5q181 0 297 119l137 -158q-149 -178 -440 -178q-272 0 -438 157t-166 404
q0 244 160 401.5t405 157.5q242 0 397.5 -155.5t155.5 -409.5zM643 901q-124 0 -208 -72.5t-103 -193.5h620q-15 119 -99.5 192.5t-209.5 73.5z" />
    <glyph glyph-name="uni04D8" unicode="&#x4d8;" horiz-adv-x="1683" 
d="M815 1454q152 0 291 -49.5t247 -140.5t172 -232t64 -311q0 -169 -63 -311t-169 -235t-243.5 -144t-288.5 -51q-120 0 -231.5 31.5t-205.5 94.5t-164 150t-109 204t-39 251q0 63 8 112h1229q-23 122 -97 214t-179 139t-226 47q-107 0 -213.5 -43t-198.5 -127l-194 168
q127 115 286 174t324 59zM825 209q187 0 326.5 117.5t165.5 310.5h-969q21 -193 156.5 -310.5t320.5 -117.5z" />
    <glyph glyph-name="uni04D9" unicode="&#x4d9;" horiz-adv-x="1302" 
d="M623 1108q272 0 438 -157t166 -404q0 -244 -160 -401.5t-405 -157.5q-242 0 -397.5 155.5t-155.5 409.5q0 26 4 76h858q-23 121 -118 191.5t-237 70.5q-181 0 -297 -119l-137 158q149 178 441 178zM662 193q124 0 208 72.5t103 193.5h-621q15 -119 100 -192.5t210 -73.5z
" />
    <glyph glyph-name="uni04DA" unicode="&#x4da;" horiz-adv-x="1683" 
d="M645 1573q-53 0 -88 34.5t-35 88.5q0 55 35 90t88 35t88 -35t35 -90q0 -54 -35 -88.5t-88 -34.5zM1042 1573q-53 0 -87.5 34.5t-34.5 88.5q0 55 34.5 90t87.5 35t88 -35t35 -90q0 -54 -35 -88.5t-88 -34.5zM815 1454q152 0 291 -49.5t247 -140.5t172 -232t64 -311
q0 -169 -63 -311t-169 -235t-243.5 -144t-288.5 -51q-120 0 -231.5 31.5t-205.5 94.5t-164 150t-109 204t-39 251q0 63 8 112h1229q-23 122 -97 214t-179 139t-226 47q-107 0 -213.5 -43t-198.5 -127l-194 168q127 115 286 174t324 59zM825 209q187 0 326.5 117.5
t165.5 310.5h-969q21 -193 156.5 -310.5t320.5 -117.5z" />
    <glyph glyph-name="uni04DB" unicode="&#x4db;" horiz-adv-x="1302" 
d="M469 1266q-53 0 -88 34.5t-35 88.5q0 55 35 89.5t88 34.5t88 -34.5t35 -89.5q0 -54 -35 -88.5t-88 -34.5zM866 1266q-53 0 -88 34.5t-35 88.5q0 55 35 89.5t88 34.5t88 -34.5t35 -89.5q0 -54 -35 -88.5t-88 -34.5zM623 1108q272 0 438 -157t166 -404q0 -244 -160 -401.5
t-405 -157.5q-242 0 -397.5 155.5t-155.5 409.5q0 26 4 76h858q-23 121 -118 191.5t-237 70.5q-181 0 -297 -119l-137 158q149 178 441 178zM662 193q124 0 208 72.5t103 193.5h-621q15 -119 100 -192.5t210 -73.5z" />
    <glyph glyph-name="uni04DC" unicode="&#x4dc;" horiz-adv-x="2154" 
d="M883 1573q-53 0 -88 34.5t-35 88.5q0 55 35 90t88 35t88 -35t35 -90q0 -54 -35 -88.5t-88 -34.5zM1280 1573q-53 0 -88 34.5t-35 88.5q0 55 35 90t88 35t88 -35t35 -90q0 -54 -35 -88.5t-88 -34.5zM1815 0l-361 604h-246v-604h-260v604h-246l-362 -604h-307l450 748
l-420 686h283l350 -600h252v600h260v-600h248l352 600h283l-418 -689l449 -745h-307z" />
    <glyph glyph-name="uni04DD" unicode="&#x4dd;" horiz-adv-x="1800" 
d="M700 1266q-53 0 -87.5 34.5t-34.5 88.5q0 55 34.5 89.5t87.5 34.5t88 -34.5t35 -89.5q0 -54 -35 -88.5t-88 -34.5zM1098 1266q-53 0 -88 34.5t-35 88.5q0 55 35 89.5t88 34.5t88 -34.5t35 -89.5q0 -54 -35 -88.5t-88 -34.5zM1477 0l-267 438h-184v-438h-254v438h-184
l-266 -438h-304l359 565l-332 529h272l267 -443h188v443h254v-443h186l269 443h272l-332 -529l361 -565h-305z" />
    <glyph glyph-name="uni04DE" unicode="&#x4de;" horiz-adv-x="1329" 
d="M461 1573q-53 0 -88 34.5t-35 88.5q0 55 35 90t88 35t88 -35t35 -90q0 -54 -35 -88.5t-88 -34.5zM858 1573q-53 0 -88 34.5t-35 88.5q0 55 35 90t88 35t88 -35t35 -90q0 -54 -35 -88.5t-88 -34.5zM954 748q128 -40 201.5 -131.5t73.5 -215.5q0 -97 -50 -177.5
t-134.5 -133t-195.5 -81.5t-235 -29q-145 0 -289 40t-266 119l86 195q94 -64 209.5 -97.5t227.5 -33.5q161 0 268.5 63t107.5 174q0 95 -77 144t-215 49h-334v209h313q120 0 187 48.5t67 133.5q0 99 -91.5 155t-232.5 56q-207 0 -391 -109l-84 215q221 119 482 119
q159 0 291.5 -47t214 -140t81.5 -216q0 -106 -57 -186.5t-158 -122.5z" />
    <glyph glyph-name="uni04DF" unicode="&#x4df;" horiz-adv-x="1132" 
d="M354 1266q-53 0 -88 34.5t-35 88.5q0 55 35 89.5t88 34.5t88 -34.5t35 -89.5q0 -54 -35 -88.5t-88 -34.5zM752 1266q-53 0 -88 34.5t-35 88.5q0 55 35 89.5t88 34.5t87.5 -34.5t34.5 -89.5q0 -54 -34.5 -88.5t-87.5 -34.5zM825 569q102 -30 158.5 -93.5t56.5 -153.5
q0 -151 -147 -245.5t-377 -94.5q-265 0 -467 114l74 191q169 -94 381 -94q128 0 201 39.5t73 109.5q0 64 -56 98.5t-159 34.5h-213v172h193q97 0 151 32.5t54 92.5t-65.5 94.5t-180.5 34.5q-163 0 -346 -80l-66 189q214 100 434 100q212 0 349 -83.5t137 -217.5
q0 -79 -49.5 -142.5t-135.5 -97.5z" />
    <glyph glyph-name="uni04E0" unicode="&#x4e0;" horiz-adv-x="1292" 
d="M756 842q218 -23 333 -132.5t115 -279.5q0 -93 -36.5 -173.5t-107.5 -143t-186 -98t-262 -35.5q-163 0 -312 43t-241 118l95 209q81 -66 200.5 -104.5t249.5 -38.5q156 0 244 59t88 164q0 101 -84.5 158t-253.5 57h-135v178l358 391h-704v220h1018v-179z" />
    <glyph glyph-name="uni04E1" unicode="&#x4e1;" horiz-adv-x="1107" 
d="M627 477q206 -23 314 -136.5t108 -289.5q0 -96 -35 -179t-102.5 -147t-176.5 -100.5t-248 -36.5q-155 0 -295 45t-231 123l94 211q75 -69 187.5 -109t234.5 -40q147 0 227 61t80 172q0 108 -76.5 169t-234.5 61h-133v178l338 413h-662v222h967v-181z" />
    <glyph glyph-name="uni04E2" unicode="&#x4e2;" horiz-adv-x="1683" 
d="M485 1614v153h709v-153h-709zM203 0v1434h262v-1018l770 1018h248v-1434h-262v1016l-770 -1016h-248z" />
    <glyph glyph-name="uni04E3" unicode="&#x4e3;" horiz-adv-x="1437" 
d="M348 1307v153h709v-153h-709zM172 0v1094h256v-721l604 721h234v-1094h-256v721l-602 -721h-236z" />
    <glyph glyph-name="uni04E4" unicode="&#x4e4;" horiz-adv-x="1683" 
d="M641 1573q-53 0 -88 34.5t-35 88.5q0 55 35 90t88 35t88 -35t35 -90q0 -54 -35 -88.5t-88 -34.5zM1038 1573q-53 0 -88 34.5t-35 88.5q0 55 35 90t88 35t88 -35t35 -90q0 -54 -35 -88.5t-88 -34.5zM203 0v1434h262v-1018l770 1018h248v-1434h-262v1016l-770 -1016h-248z
" />
    <glyph glyph-name="uni04E5" unicode="&#x4e5;" horiz-adv-x="1437" 
d="M504 1266q-53 0 -88 34.5t-35 88.5q0 55 35 89.5t88 34.5t88 -34.5t35 -89.5q0 -54 -35 -88.5t-88 -34.5zM901 1266q-53 0 -88 34.5t-35 88.5q0 55 35 89.5t88 34.5t88 -34.5t35 -89.5q0 -54 -35 -88.5t-88 -34.5zM172 0v1094h256v-721l604 721h234v-1094h-256v721
l-602 -721h-236z" />
    <glyph glyph-name="uni04E6" unicode="&#x4e6;" horiz-adv-x="1730" 
d="M666 1573q-53 0 -88 34.5t-35 88.5q0 55 35 90t88 35t87.5 -35t34.5 -90q0 -54 -34.5 -88.5t-87.5 -34.5zM1063 1573q-53 0 -88 34.5t-35 88.5q0 55 35 90t88 35t88 -35t35 -90q0 -54 -35 -88.5t-88 -34.5zM864 -20q-219 0 -395.5 95t-276.5 264t-100 378t100 378
t276.5 264t395.5 95t395.5 -95t276.5 -263.5t100 -378.5t-100 -378.5t-276.5 -263.5t-395.5 -95zM864 213q217 0 360.5 142.5t143.5 361.5t-143.5 361.5t-360.5 142.5t-360.5 -142.5t-143.5 -361.5t143.5 -361.5t360.5 -142.5z" />
    <glyph glyph-name="uni04E7" unicode="&#x4e7;" horiz-adv-x="1323" 
d="M459 1266q-53 0 -88 34.5t-35 88.5q0 55 35 89.5t88 34.5t88 -34.5t35 -89.5q0 -54 -35 -88.5t-88 -34.5zM856 1266q-53 0 -88 34.5t-35 88.5q0 55 35 89.5t88 34.5t88 -34.5t35 -89.5q0 -54 -35 -88.5t-88 -34.5zM659 -14q-253 0 -417 158t-164 403t164 402t417 157
q255 0 419.5 -156.5t164.5 -402.5t-164.5 -403.5t-419.5 -157.5zM659 205q142 0 234 94t92 248t-92 248t-234 94q-140 0 -231.5 -94t-91.5 -248t91.5 -248t231.5 -94z" />
    <glyph glyph-name="uni04E8" unicode="&#x4e8;" horiz-adv-x="1730" 
d="M864 1454q219 0 395.5 -95t276.5 -263.5t100 -378.5t-100 -378.5t-276.5 -263.5t-395.5 -95t-395.5 95t-276.5 264t-100 378t100 378t276.5 264t395.5 95zM864 1221q-191 0 -327 -112.5t-168 -293.5h991q-32 181 -168.5 293.5t-327.5 112.5zM864 213q191 0 327.5 112
t168.5 293h-991q32 -181 168 -293t327 -112z" />
    <glyph glyph-name="uni04E9" unicode="&#x4e9;" horiz-adv-x="1341" 
d="M670 1106q259 0 426.5 -156.5t167.5 -402.5q0 -245 -167.5 -403t-426.5 -158q-257 0 -424.5 158t-167.5 403q0 246 167 402.5t425 156.5zM670 911q-132 0 -223.5 -74.5t-116.5 -203.5h682q-25 129 -117.5 203.5t-224.5 74.5zM670 182q132 0 224.5 75t117.5 204h-682
q25 -127 117 -203t223 -76z" />
    <glyph glyph-name="uni04EA" unicode="&#x4ea;" horiz-adv-x="1730" 
d="M666 1573q-53 0 -88 34.5t-35 88.5q0 55 35 90t88 35t87.5 -35t34.5 -90q0 -54 -34.5 -88.5t-87.5 -34.5zM1063 1573q-53 0 -88 34.5t-35 88.5q0 55 35 90t88 35t88 -35t35 -90q0 -54 -35 -88.5t-88 -34.5zM864 1454q219 0 395.5 -95t276.5 -263.5t100 -378.5
t-100 -378.5t-276.5 -263.5t-395.5 -95t-395.5 95t-276.5 264t-100 378t100 378t276.5 264t395.5 95zM864 1221q-191 0 -327 -112.5t-168 -293.5h991q-32 181 -168.5 293.5t-327.5 112.5zM864 213q191 0 327.5 112t168.5 293h-991q32 -181 168 -293t327 -112z" />
    <glyph glyph-name="uni04EB" unicode="&#x4eb;" horiz-adv-x="1341" 
d="M473 1266q-53 0 -88 34.5t-35 88.5q0 55 35 89.5t88 34.5t88 -34.5t35 -89.5q0 -54 -35 -88.5t-88 -34.5zM870 1266q-53 0 -87.5 34.5t-34.5 88.5q0 55 34.5 89.5t87.5 34.5t88 -34.5t35 -89.5q0 -54 -35 -88.5t-88 -34.5zM670 1106q259 0 426.5 -156.5t167.5 -402.5
q0 -245 -167.5 -403t-426.5 -158q-257 0 -424.5 158t-167.5 403q0 246 167 402.5t425 156.5zM670 911q-132 0 -223.5 -74.5t-116.5 -203.5h682q-25 129 -117.5 203.5t-224.5 74.5zM670 182q132 0 224.5 75t117.5 204h-682q25 -127 117 -203t223 -76z" />
    <glyph glyph-name="uni04EC" unicode="&#x4ec;" horiz-adv-x="1454" 
d="M465 1573q-53 0 -88 34.5t-35 88.5q0 55 35 90t88 35t88 -35t35 -90q0 -54 -35 -88.5t-88 -34.5zM862 1573q-53 0 -88 34.5t-35 88.5q0 55 35 90t88 35t88 -35t35 -90q0 -54 -35 -88.5t-88 -34.5zM627 1454q208 0 375.5 -94.5t261.5 -263t94 -379.5t-94 -379.5
t-261.5 -263t-375.5 -94.5q-182 0 -331 61t-247 178l168 164q157 -170 395 -170q183 0 311.5 113t157.5 297h-641v211h637q-34 174 -160.5 280.5t-304.5 106.5q-238 0 -395 -170l-168 163q98 117 247 178.5t331 61.5z" />
    <glyph glyph-name="uni04ED" unicode="&#x4ed;" horiz-adv-x="1189" 
d="M352 1266q-53 0 -88 34.5t-35 88.5q0 55 35 89.5t88 34.5t88 -34.5t35 -89.5q0 -54 -35 -88.5t-88 -34.5zM750 1266q-53 0 -88 34.5t-35 88.5q0 55 35 89.5t88 34.5t87.5 -34.5t34.5 -89.5q0 -54 -34.5 -88.5t-87.5 -34.5zM512 1110q172 0 309.5 -72t215 -200.5
t77.5 -290.5t-77.5 -291t-215 -201.5t-309.5 -72.5q-304 0 -475 190l147 143q129 -129 318 -129q140 0 239 75.5t127 199.5h-506v184h504q-31 120 -128.5 191t-235.5 71q-190 0 -318 -131l-147 144q169 190 475 190z" />
    <glyph glyph-name="uni04EE" unicode="&#x4ee;" horiz-adv-x="1445" 
d="M1069 1767v-153h-709v153h709zM1169 1434h263l-623 -1158q-82 -154 -195 -230.5t-247 -76.5q-106 0 -211 45l65 209q83 -26 139 -26q130 0 213 133l23 35l-571 1069h284l424 -842z" />
    <glyph glyph-name="uni04EF" unicode="&#x4ef;" horiz-adv-x="1210" 
d="M932 1460v-153h-709v153h709zM958 1094h246l-512 -1182q-72 -178 -174.5 -251t-247.5 -73q-82 0 -161.5 27t-131.5 74l103 188q79 -76 188 -76q67 0 111.5 35t81.5 117l18 43l-477 1098h266l344 -809z" />
    <glyph glyph-name="uni04F0" unicode="&#x4f0;" horiz-adv-x="1445" 
d="M516 1573q-53 0 -88 34.5t-35 88.5q0 55 35 90t88 35t88 -35t35 -90q0 -54 -35 -88.5t-88 -34.5zM913 1573q-53 0 -87.5 34.5t-34.5 88.5q0 55 34.5 90t87.5 35t88 -35t35 -90q0 -54 -35 -88.5t-88 -34.5zM1169 1434h263l-623 -1158q-82 -154 -195 -230.5t-247 -76.5
q-106 0 -211 45l65 209q83 -26 139 -26q130 0 213 133l23 35l-571 1069h284l424 -842z" />
    <glyph glyph-name="uni04F1" unicode="&#x4f1;" horiz-adv-x="1210" 
d="M379 1266q-53 0 -88 34.5t-35 88.5q0 55 35 89.5t88 34.5t88 -34.5t35 -89.5q0 -54 -35 -88.5t-88 -34.5zM776 1266q-53 0 -88 34.5t-35 88.5q0 55 35 89.5t88 34.5t88 -34.5t35 -89.5q0 -54 -35 -88.5t-88 -34.5zM958 1094h246l-512 -1182q-72 -178 -174.5 -251
t-247.5 -73q-82 0 -161.5 27t-131.5 74l103 188q79 -76 188 -76q67 0 111.5 35t81.5 117l18 43l-477 1098h266l344 -809z" />
    <glyph glyph-name="uni04F2" unicode="&#x4f2;" horiz-adv-x="1445" 
d="M844 1831l-221 -281h-201l166 281h256zM1008 1550h-201l164 281h256zM1169 1434h263l-623 -1158q-82 -154 -195 -230.5t-247 -76.5q-106 0 -211 45l65 209q83 -26 139 -26q130 0 213 133l23 35l-571 1069h284l424 -842z" />
    <glyph glyph-name="uni04F3" unicode="&#x4f3;" horiz-adv-x="1210" 
d="M707 1524l-222 -281h-200l166 281h256zM870 1243h-200l164 281h256zM958 1094h246l-512 -1182q-72 -178 -174.5 -251t-247.5 -73q-82 0 -161.5 27t-131.5 74l103 188q79 -76 188 -76q67 0 111.5 35t81.5 117l18 43l-477 1098h266l344 -809z" />
    <glyph glyph-name="uni04F4" unicode="&#x4f4;" horiz-adv-x="1519" 
d="M512 1573q-53 0 -88 34.5t-35 88.5q0 55 35 90t88 35t88 -35t35 -90q0 -54 -35 -88.5t-88 -34.5zM909 1573q-53 0 -88 34.5t-35 88.5q0 55 35 90t88 35t88 -35t35 -90q0 -54 -35 -88.5t-88 -34.5zM1055 1434h264v-1434h-264v541q-204 -76 -385 -76q-276 0 -424 132.5
t-148 379.5v457h264v-428q0 -152 87.5 -232t252.5 -80q185 0 353 76v664z" />
    <glyph glyph-name="uni04F5" unicode="&#x4f5;" horiz-adv-x="1271" 
d="M383 1266q-53 0 -88 34.5t-35 88.5q0 55 35 89.5t88 34.5t88 -34.5t35 -89.5q0 -54 -35 -88.5t-88 -34.5zM780 1266q-53 0 -88 34.5t-35 88.5q0 55 35 89.5t88 34.5t88 -34.5t35 -89.5q0 -54 -35 -88.5t-88 -34.5zM844 1094h256v-1094h-256v424q-158 -76 -330 -76
q-212 0 -324 97.5t-112 297.5v351h256v-334q0 -207 235 -207q144 0 275 61v480z" />
    <glyph glyph-name="uni04F6" unicode="&#x4f6;" horiz-adv-x="1198" 
d="M1174 1208h-711l2 -983h213v-530h-246v305h-229v1434h973z" />
    <glyph glyph-name="uni04F7" unicode="&#x4f7;" horiz-adv-x="1026" 
d="M1012 877h-584v-660h166v-442h-240v225h-182v1094h840v-217z" />
    <glyph glyph-name="uni04F8" unicode="&#x4f8;" horiz-adv-x="2068" 
d="M842 1573q-53 0 -88 34.5t-35 88.5q0 55 35 90t88 35t88 -35t35 -90q0 -54 -35 -88.5t-88 -34.5zM1239 1573q-53 0 -88 34.5t-35 88.5q0 55 35 90t88 35t88 -35t35 -90q0 -54 -35 -88.5t-88 -34.5zM862 948q259 0 397 -116t138 -343q0 -239 -151.5 -364t-426.5 -125h-616
v1434h262v-486h397zM1604 0v1434h262v-1434h-262zM807 205q155 0 239 71.5t84 208.5q0 260 -323 260h-342v-540h342z" />
    <glyph glyph-name="uni04F9" unicode="&#x4f9;" horiz-adv-x="1703" 
d="M674 1266q-53 0 -88 34.5t-35 88.5q0 55 35 89.5t88 34.5t88 -34.5t35 -89.5q0 -54 -35 -88.5t-88 -34.5zM1071 1266q-53 0 -88 34.5t-35 88.5q0 55 35 89.5t88 34.5t88 -34.5t35 -89.5q0 -54 -35 -88.5t-88 -34.5zM705 733q209 0 319.5 -94t110.5 -266
q0 -180 -121.5 -278t-345.5 -97l-496 2v1094h256v-359zM1276 0v1094h256v-1094h-256zM645 186q113 -2 172.5 47t59.5 144q0 92 -58 135t-174 45l-217 2v-371z" />
    <glyph glyph-name="uni04FA" unicode="&#x4fa;" horiz-adv-x="1288" 
d="M1241 1208h-713v-456h580v-185h-580v-356h189v-266q0 -168 -104.5 -263.5t-262.5 -95.5q-132 0 -260 70l70 180q66 -41 141 -41q70 0 115 45t45 129v31h-197v567h-215v185h215v682h977v-226z" />
    <glyph glyph-name="uni04FB" unicode="&#x4fb;" horiz-adv-x="1036" 
d="M989 877h-504v-273h410v-168h-410v-231h164v-246q0 -171 -98 -271t-272 -100q-155 0 -250 68l67 180q65 -45 148 -45q73 0 111 46t38 136v27h-164v436h-174v168h174v490h760v-217z" />
    <glyph glyph-name="uni04FC" unicode="&#x4fc;" horiz-adv-x="1423" 
d="M1368 1434l-498 -689q237 -285 315 -394q164 -228 181 -378q2 -20 2 -39q0 -164 -107 -258t-270 -94q-128 0 -252 62l64 186q64 -37 133 -37q65 0 104 40.5t39 113.5q0 52 -27.5 117.5t-85.5 150t-112.5 154.5t-144.5 178l-383 -547h-308l535 733l-506 701h305l367 -506
l360 506h289z" />
    <glyph glyph-name="uni04FD" unicode="&#x4fd;" horiz-adv-x="1157" 
d="M735 573q92 -107 145.5 -172t110 -141t84.5 -129t46 -110t18 -111q0 -147 -102.5 -235.5t-258.5 -88.5q-124 0 -252 64l70 190q67 -43 141 -43q64 0 105 38t41 95q0 72 -66 172.5t-225 282.5l-293 -385h-285l424 557l-407 537h286l269 -355l266 355h278z" />
    <glyph glyph-name="uni04FE" unicode="&#x4fe;" horiz-adv-x="1443" 
d="M963 637l446 -637h-317l-373 522l-371 -522h-307l448 637h-305v186h314l-424 611h307l338 -480l338 480h309l-426 -611h307v-186h-284z" />
    <glyph glyph-name="uni04FF" unicode="&#x4ff;" horiz-adv-x="1202" 
d="M1167 0h-297l-272 375l-285 -375h-282l352 461h-217v170h227l-342 463h291l264 -359l271 359h272l-350 -463h239v-170h-213z" />
    <glyph glyph-name="uni0510" unicode="&#x510;" horiz-adv-x="1327" 
d="M1184 334l86 -195q-248 -159 -557 -159q-166 0 -304 49t-223.5 146t-85.5 226q0 124 73 215.5t202 131.5q-101 42 -158 122.5t-57 186.5q0 123 82 216t214 140t292 47q258 0 479 -119l-82 -215q-184 109 -391 109q-141 0 -232.5 -56t-91.5 -155q0 -85 66.5 -133.5
t185.5 -48.5h315v-209h-333q-139 0 -216 -49t-77 -144q0 -111 107 -174t267 -63q113 0 229 33.5t210 97.5z" />
    <glyph glyph-name="uni0511" unicode="&#x511;" horiz-adv-x="1132" 
d="M1010 287l73 -191q-202 -114 -467 -114q-230 0 -377 94.5t-147 245.5q0 90 56.5 153.5t158.5 93.5q-85 34 -134.5 97.5t-49.5 142.5q0 134 136.5 217.5t348.5 83.5q220 0 434 -100l-65 -189q-183 80 -346 80q-115 0 -180.5 -34.5t-65.5 -94.5t54 -92.5t151 -32.5h192
v-172h-213q-103 0 -159 -34.5t-56 -98.5q0 -70 73.5 -109.5t201.5 -39.5q212 0 381 94z" />
    <glyph glyph-name="uni0512" unicode="&#x512;" horiz-adv-x="1628" 
d="M797 -346l71 188q68 -41 138 -41q68 0 112.5 40.5t44.5 115.5v1251h-565l-12 -358q-6 -178 -21 -308.5t-44.5 -241t-75 -178t-113.5 -105t-160 -37.5q-50 0 -145 20l18 231q31 -8 61 -8q64 0 109 38.5t72.5 120t41.5 191t19 267.5l23 594h1054v-1483q0 -175 -108 -270
t-266 -95q-136 0 -254 68z" />
    <glyph glyph-name="uni0513" unicode="&#x513;" horiz-adv-x="1337" 
d="M279 1094h884v-1123q0 -177 -97.5 -280t-277.5 -103q-156 0 -245 66l71 188q55 -43 140 -43q153 0 153 174v904h-409l-11 -218q-5 -105 -13 -186t-23.5 -162t-40 -138t-59.5 -102.5t-84.5 -68t-112.5 -22.5q-59 0 -142 22l13 215q27 -6 49 -6q59 0 97 35.5t55 109.5
t23 138.5t11 168.5v9z" />
    <glyph glyph-name="uni051A" unicode="&#x51a;" horiz-adv-x="1744" 
d="M1585 4l123 -147q-144 -170 -375 -170q-147 0 -270.5 66t-280.5 231q-149 13 -277 74t-219 156.5t-142.5 225.5t-51.5 277q0 209 100 378t276.5 264t395.5 95t395.5 -95t276.5 -263.5t100 -378.5q0 -257 -147 -448t-389 -259q60 -65 117 -93t122 -28q140 0 246 115z
M360 717q0 -219 143.5 -361.5t360.5 -142.5t360.5 142.5t143.5 361.5t-143.5 361.5t-360.5 142.5t-360.5 -142.5t-143.5 -361.5z" />
    <glyph glyph-name="uni051B" unicode="&#x51b;" horiz-adv-x="1415" 
d="M997 1094h244v-1491h-256v530q-129 -147 -350 -147q-242 0 -397.5 154.5t-155.5 406.5q0 251 155.5 405t397.5 154q233 0 362 -156v144zM664 205q142 0 233.5 94t91.5 248t-91.5 248t-233.5 94q-141 0 -232.5 -94t-91.5 -248t91.5 -248t232.5 -94z" />
    <glyph glyph-name="uni051C" unicode="&#x51c;" horiz-adv-x="2260" 
d="M1972 1434h256l-471 -1434h-278l-344 1053l-351 -1053h-278l-473 1434h276l350 -1076l359 1076h246l350 -1084z" />
    <glyph glyph-name="uni051D" unicode="&#x51d;" horiz-adv-x="1949" 
d="M1692 1094h243l-411 -1094h-264l-283 762l-287 -762h-264l-414 1094h262l289 -795l301 795h236l293 -797z" />
    <glyph glyph-name="uni0524" unicode="&#x524;" horiz-adv-x="1736" 
d="M1470 225h213v-530h-245v305h-230v1208h-743v-1208h-262v1434h1267v-1209z" />
    <glyph glyph-name="uni0525" unicode="&#x525;" horiz-adv-x="1394" 
d="M1221 217h168v-442h-240v225h-182v877h-539v-877h-256v1094h1049v-877z" />
    <glyph glyph-name="uni0526" unicode="&#x526;" horiz-adv-x="1665" 
d="M1421 225h213v-530h-245v305h-230v428q0 151 -88 231t-252 80q-188 0 -354 -75v-664h-262v1434h262v-541q204 76 385 76q275 0 423 -132.5t148 -379.5v-232z" />
    <glyph glyph-name="uni0527" unicode="&#x527;" horiz-adv-x="1454" 
d="M1249 217h162v-442h-237v225h-181v588q0 143 -66.5 214.5t-189.5 71.5q-142 0 -225.5 -85t-83.5 -242v-547h-256v1520h256v-588q132 174 381 174q202 0 321 -119t119 -354v-416z" />
    <glyph glyph-name="uni0528" unicode="&#x528;" horiz-adv-x="1667" 
d="M-164 -346l72 188q68 -41 137 -41q68 0 112 40.5t44 115.5v1477h264v-607h739v607h262v-1434h-262v600h-739v-649q0 -175 -108.5 -270t-266.5 -95q-136 0 -254 68z" />
    <glyph glyph-name="uni0529" unicode="&#x529;" horiz-adv-x="1409" 
d="M981 1094h256v-1094h-256v436h-551v-469q0 -174 -97 -276.5t-272 -102.5q-162 0 -251 66l71 188q55 -43 142 -43q72 0 111.5 44t39.5 130v1121h256v-439h551v439z" />
    <glyph glyph-name="uni052E" unicode="&#x52e;" horiz-adv-x="1691" 
d="M1425 225h211v-530h-245v305h-228v1208h-565l-12 -358q-6 -178 -20.5 -308.5t-43.5 -240.5t-74.5 -178.5t-113.5 -105.5t-160 -37q-53 0 -145 20l18 231q27 -8 62 -8q64 0 108.5 38.5t72 120t41 191t19.5 267.5l21 594h1054v-1209z" />
    <glyph glyph-name="uni052F" unicode="&#x52f;" horiz-adv-x="1382" 
d="M1163 217h166v-442h-239v225h-183v877h-409l-11 -218q-5 -105 -13 -186t-23.5 -162t-40 -138t-59.5 -102.5t-84.5 -68t-112.5 -22.5q-59 0 -142 22l13 215q27 -6 49 -6q39 0 69 16.5t48.5 48.5t31 70.5t19.5 91.5t10.5 101t6.5 109q1 16 1 24l19 422h884v-877z" />
    <glyph glyph-name="uni1E08" unicode="&#x1e08;" horiz-adv-x="1488" 
d="M1251 1831l-356 -281h-221l276 281h301zM870 213q229 0 383 170l172 -164q-97 -112 -236 -173t-308 -66l-21 -80q88 -10 133 -56.5t45 -115.5q0 -89 -76 -142t-202 -53q-113 0 -189 43l47 121q62 -33 140 -33q108 0 108 74q0 67 -108 67h-64l47 181q-141 18 -261.5 80.5
t-206.5 157t-134.5 222t-48.5 271.5q0 211 99.5 379.5t275 263t393.5 94.5q175 0 321.5 -61.5t245.5 -178.5l-172 -161q-155 168 -383 168q-223 0 -367.5 -141.5t-144.5 -362.5t144.5 -362.5t367.5 -141.5z" />
    <glyph glyph-name="uni1E09" unicode="&#x1e09;" horiz-adv-x="1189" 
d="M1034 1524l-356 -281h-221l276 281h301zM668 205q176 0 272 151l197 -114q-61 -120 -179 -186.5t-272 -69.5l-22 -86q88 -10 133 -56.5t45 -115.5q0 -89 -76.5 -142t-202.5 -53q-112 0 -188 43l47 121q62 -33 139 -33q109 0 109 74q0 67 -109 67h-63l51 191
q-212 35 -341.5 185.5t-129.5 365.5q0 246 166 402.5t426 156.5q161 0 283 -65.5t184 -188.5l-197 -115q-96 152 -272 152q-144 0 -238 -93.5t-94 -248.5q0 -156 94 -249t238 -93z" />
    <glyph glyph-name="uni1E0C" unicode="&#x1e0c;" horiz-adv-x="1691" 
d="M193 0v1434h626q230 0 408 -89t276.5 -252.5t98.5 -375.5t-98.5 -375.5t-276.5 -252.5t-408 -89h-626zM459 225h348q239 0 382.5 134.5t143.5 357.5t-143.5 357t-382.5 134h-348v-983zM774 -416q-53 0 -88 33t-35 88q0 54 35 89.5t88 35.5t88 -35.5t35 -89.5
q0 -55 -35 -88t-88 -33z" />
    <glyph glyph-name="uni1E0D" unicode="&#x1e0d;" horiz-adv-x="1406" 
d="M983 1520h256v-1520h-246v141q-128 -155 -362 -155q-158 0 -283.5 68.5t-197.5 197t-72 295.5t72 295t197.5 196t283.5 68q225 0 352 -148v562zM662 205q141 0 233 94t92 248t-92 248t-233 94t-233.5 -94t-92.5 -248t92.5 -248t233.5 -94zM725 -170q53 0 88 -35.5
t35 -89.5q0 -55 -35 -88t-88 -33t-88 33t-35 88q0 54 35 89.5t88 35.5z" />
    <glyph glyph-name="uni1E0E" unicode="&#x1e0e;" horiz-adv-x="1691" 
d="M193 0v1434h626q230 0 408 -89t276.5 -252.5t98.5 -375.5t-98.5 -375.5t-276.5 -252.5t-408 -89h-626zM459 225h348q239 0 382.5 134.5t143.5 357.5t-143.5 357t-382.5 134h-348v-983zM420 -365v152h708v-152h-708z" />
    <glyph glyph-name="uni1E0F" unicode="&#x1e0f;" horiz-adv-x="1406" 
d="M983 1520h256v-1520h-246v141q-128 -155 -362 -155q-158 0 -283.5 68.5t-197.5 197t-72 295.5t72 295t197.5 196t283.5 68q225 0 352 -148v562zM662 205q141 0 233 94t92 248t-92 248t-233 94t-233.5 -94t-92.5 -248t92.5 -248t233.5 -94zM371 -365v152h708v-152h-708z
" />
    <glyph glyph-name="uni1E14" unicode="&#x1e14;" horiz-adv-x="1372" 
d="M879 1862h-197l-311 239h274zM1073 1733v-144h-708v144h708zM459 223h809v-223h-1075v1434h1046v-224h-780v-372h692v-220h-692v-395z" />
    </font>
</defs>
</svg>
